找回密码

蓝光电影网

查看: 78|回复: 1

[剧情] 峰会 The.Summit.2017.1080p.BluRay.x264-USURY 7.65GB

[复制链接]

 成长值: 1840

发表于 2019-10-9 17:36:00 | 显示全部楼层 |阅读模式
峰会 The.Summit.2017.1080p.BluRay.x264-USURY 7.65GB-1.png

译  名 峰会 / The Summit / 神秘高峰會(台)
片  名 La cordillera
年  代 2017
产  地 阿根廷 / 法国 / 西班牙
类  别 剧情 / 悬疑 / 惊悚
语  言 西班牙语
上映日期 2017-05-24(戛纳电影节)
IMDb评分  6.0/10 from 2895 users
IMDb链接  http://www.imdb.com/title/tt6047298
豆瓣评分 6.0/10 from 226 users
豆瓣链接 https://movie.douban.com/subject/26908084/
片  长 114分钟
导  演 圣地亚戈·迈特 Santiago Mitre
编  剧 圣地亚戈·迈特 Santiago Mitre / 马里亚诺·利纳斯 Mariano Llinás
主  演 里卡多·达林 Ricardo Darín
       埃琳纳·安娜亚 Elena Anaya
       宝琳娜·加西亚 Paulina García
       克里斯蒂安·史莱特 Christian Slater
       阿尔佛莱德·卡斯特罗 Alfredo Castro
       多洛莉丝·房兹 Dolores Fonzi
       丹尼尔·吉梅内斯·卡乔 Daniel Giménez Cacho
       艾丽卡·里瓦斯 Erica Rivas
       Gerardo Romano


标  签 阿根廷 | 政治 | 2017 | 西班牙 | 悬疑 | 剧情 | 戛纳电影节 | 法国

简  介  

  以「平民路线」为竞选形象的阿根廷总统,当选后一直没有代表性建设,成为国内媒体讪笑调侃的对象。在参加国际高峰会期间,他深陷生涯至今最惨烈的政治与私生活风暴,国内的贪腐丑闻衝著他来,南美列强和狡猾的老美包围著他,而唯一的女儿竟然在峰会关键时刻突然昏倒!在催眠师的引导下,她开始回想起遗失的记忆,这些她原本不可能知道的秘密,将带给总统先生私人和公众生活不可预料的影响……

获奖情况  

  第70届戛纳电影节(2017)
  一种关注单元 一种关注大奖(提名) 圣地亚戈·迈特

  第32届西班牙戈雅奖(2018)
  最佳原创音乐(提名)
  1. Video
  2. ID                                       : 1
  3. Format                                   : AVC
  4. Format/Info                              : Advanced Video Codec
  5. Format profile                           : High@L4
  6. Format settings                          : CABAC / 5 Ref Frames
  7. Format settings, CABAC                   : Yes
  8. Format settings, RefFrames               : 5 frames
  9. Codec ID                                 : V_MPEG4/ISO/AVC
  10. Duration                                 : 1 h 54 min
  11. Bit rate                                 : 8 969 kb/s
  12. Width                                    : 1 920 pixels
  13. Height                                   : 808 pixels
  14. Display aspect ratio                     : 2.40:1
  15. Frame rate mode                          : Constant
  16. Frame rate                               : 23.976 (24000/1001) FPS
  17. Color space                              : YUV
  18. Chroma subsampling                       : 4:2:0
  19. Bit depth                                : 8 bits
  20. Scan type                                : Progressive
  21. Bits/(Pixel*Frame)                       : 0.241
  22. Stream size                              : 7.14 GiB (93%)
  23. Writing library                          : x264 core 155 r2901 7d0ff22
  24. Encoding settings                        : cabac=1 / ref=5 / deblock=1:-3:-3 / analyse=0x3:0x133 / me=umh / subme=9 / psy=1 / psy_rd=1.00:0.00 / mixed_ref=1 / me_range=16 / chroma_me=1 / trellis=2 / 8x8dct=1 / cqm=0 / deadzone=21,11 / fast_pskip=0 / chroma_qp_offset=-2 / threads=12 / lookahead_threads=1 / sliced_threads=0 / nr=0 / decimate=1 / interlaced=0 / bluray_compat=0 / constrained_intra=0 / bframes=3 / b_pyramid=2 / b_adapt=1 / b_bias=0 / direct=3 / weightb=1 / open_gop=0 / weightp=2 / keyint=240 / keyint_min=24 / scenecut=40 / intra_refresh=0 / rc_lookahead=50 / rc=2pass / mbtree=1 / bitrate=8969 / ratetol=1.0 / qcomp=0.60 / qpmin=0 / qpmax=69 / qpstep=4 / cplxblur=20.0 / qblur=0.5 / ip_ratio=1.40 / aq=1:1.00
  25. Language                                 : English
  26. Default                                  : Yes
  27. Forced                                   : No

  28. Audio
  29. ID                                       : 2
  30. Format                                   : AC-3
  31. Format/Info                              : Audio Coding 3
  32. Format settings, Endianness              : Big
  33. Codec ID                                 : A_AC3
  34. Duration                                 : 1 h 54 min
  35. Bit rate mode                            : Constant
  36. Bit rate                                 : 640 kb/s
  37. Channel(s)                               : 6 channels
  38. Channel positions                        : Front: L C R, Side: L R, LFE
  39. Sampling rate                            : 48.0 kHz
  40. Frame rate                               : 31.250 FPS (1536 SPF)
  41. Bit depth                                : 16 bits
  42. Compression mode                         : Lossy
  43. Stream size                              : 522 MiB (7%)
  44. Language                                 : Spanish
  45. Service kind                             : Complete Main
  46. Default                                  : Yes
  47. Forced                                   : No

  48. Text
  49. ID                                       : 3
  50. Format                                   : UTF-8
  51. Codec ID                                 : S_TEXT/UTF8
  52. Codec ID/Info                            : UTF-8 Plain Text
  53. Duration                                 : 1 h 46 min
  54. Bit rate                                 : 53 b/s
  55. Count of elements                        : 1416
  56. Stream size                              : 41.5 KiB (0%)
  57. Title                                    : English
  58. Language                                 : English
  59. Default                                  : Yes
  60. Forced                                   : Yes

  61. Menu
  62. 00:00:00.000                             : en:00:00:00.000
  63. 00:08:25.672                             : en:00:08:25.672
  64. 00:17:55.074                             : en:00:17:55.074
  65. 00:25:51.133                             : en:00:25:51.133
  66. 00:34:10.382                             : en:00:34:10.382
  67. 00:38:10.455                             : en:00:38:10.455
  68. 00:44:46.350                             : en:00:44:46.350
  69. 00:50:31.570                             : en:00:50:31.570
  70. 01:00:20.826                             : en:01:00:20.826
  71. 01:10:23.594                             : en:01:10:23.594
  72. 01:19:21.006                             : en:01:19:21.006
  73. 01:30:31.760                             : en:01:30:31.760
  74. 01:42:34.899                             : en:01:42:34.899
  75. 01:47:30.944                             : en:01:47:30.944
复制代码

峰会 The.Summit.2017.1080p.BluRay.x264-USURY 7.65GB-2.png







开通VIP免费下载本站所有资源---点这里
新手必看:资源下载常见问题---点这里
回复

使用道具 举报

发表于 2019-10-10 22:40:29 | 显示全部楼层

楼主太厉害了!楼主,电影应该很好看我觉得蓝光电影网真是个好地方!
开通VIP免费下载本站所有资源---点这里
新手必看:资源下载常见问题---点这里
回复 支持 反对

使用道具 举报

懒得打字嘛,点击右侧快捷回复 【右侧内容,后台自定义】
您需要登录后才可以回帖 登录 | 立即加入

本版积分规则

现在加入蓝光电影网,注册一个账号

QQ| 手机版|小黑屋| 蓝光电影网 |网站地图

Copyright © 2015-2019 Comsenz Inc.  Template by 蓝光电影论坛 All Rights Reserved.

Powered by 蓝光电影网 X3.4

特别声明:本站所有资源均由网上收集而来,版权归原影音公司所有,如果侵犯了你的权益,请通知我们,我们会及时删除侵权内容.

快速回复 返回顶部 返回列表