找回密码

蓝光电影网

查看: 49|回复: 1

[纪录] 对比:肯·洛奇的生活和影片 Versus.The.Life.and.Films.of.Ken.Loach.2016.LIMITED.1080p.BluRay.x264-BiPOLAR 6.56GB

[复制链接]

 成长值: 1840

发表于 2019-10-9 17:34:10 | 显示全部楼层 |阅读模式
对比:肯·洛奇的生活和影片 Versus.The.Life.and.Films.of.Ken.Loach.2016.LIMITED.1080p.BluRay.x264-BiPOLAR 6.56GB-1.png

译  名 对比:肯·洛奇的生活和影片
片  名 Versus: The Life and Films of Ken Loach
年  代 2016
产  地 英国
类  别 纪录片
语  言 英语
上映日期 2016-06-03
IMDb评分  7.2/10 from 329 users
IMDb链接  http://www.imdb.com/title/tt5536398
豆瓣评分 8.1/10 from 255 users
豆瓣链接 https://movie.douban.com/subject/26801198/
片  长 89分钟
导  演 Louise Osmond
主  演 肯·洛奇 Ken Loach


标  签 纪录片 | 英国 | 肯·洛奇 | KenLoach | 传记 | BBC | 2016 | 英国电影

简  介  

  讲述导演肯·洛奇的纪录片——英国独立电影与电视导演编剧。他的电影作品屡次获得国际电影节多个奖项,包括戛纳电影节金棕榈奖及威尼斯电影节的终身成就奖,毕业于牛津大学圣彼得学院。

获奖情况  

  第19届英国独立电影奖(2016)
  最佳纪录片(提名)
  1. Video
  2. ID                                       : 1
  3. Format                                   : AVC
  4. Format/Info                              : Advanced Video Codec
  5. Format profile                           : High@L4
  6. Format settings                          : CABAC / 5 Ref Frames
  7. Format settings, CABAC                   : Yes
  8. Format settings, RefFrames               : 5 frames
  9. Codec ID                                 : V_MPEG4/ISO/AVC
  10. Duration                                 : 1 h 33 min
  11. Bit rate                                 : 9 374 kb/s
  12. Width                                    : 1 920 pixels
  13. Height                                   : 808 pixels
  14. Display aspect ratio                     : 2.40:1
  15. Frame rate mode                          : Constant
  16. Frame rate                               : 23.976 (24000/1001) FPS
  17. Color space                              : YUV
  18. Chroma subsampling                       : 4:2:0
  19. Bit depth                                : 8 bits
  20. Scan type                                : Progressive
  21. Bits/(Pixel*Frame)                       : 0.252
  22. Stream size                              : 6.14 GiB (94%)
  23. Writing library                          : x264 core 155 r2901 7d0ff22
  24. Encoding settings                        : cabac=1 / ref=5 / deblock=1:-3:-3 / analyse=0x3:0x133 / me=umh / subme=9 / psy=1 / psy_rd=1.00:0.00 / mixed_ref=1 / me_range=16 / chroma_me=1 / trellis=2 / 8x8dct=1 / cqm=0 / deadzone=21,11 / fast_pskip=0 / chroma_qp_offset=-2 / threads=12 / lookahead_threads=1 / sliced_threads=0 / nr=0 / decimate=1 / interlaced=0 / bluray_compat=0 / constrained_intra=0 / bframes=3 / b_pyramid=2 / b_adapt=1 / b_bias=0 / direct=3 / weightb=1 / open_gop=0 / weightp=2 / keyint=240 / keyint_min=24 / scenecut=40 / intra_refresh=0 / rc_lookahead=50 / rc=2pass / mbtree=1 / bitrate=9374 / ratetol=1.0 / qcomp=0.60 / qpmin=0 / qpmax=69 / qpstep=4 / cplxblur=20.0 / qblur=0.5 / ip_ratio=1.40 / aq=1:1.00
  25. Language                                 : English
  26. Default                                  : Yes
  27. Forced                                   : No

  28. Audio
  29. ID                                       : 2
  30. Format                                   : AC-3
  31. Format/Info                              : Audio Coding 3
  32. Format settings, Endianness              : Big
  33. Codec ID                                 : A_AC3
  34. Duration                                 : 1 h 33 min
  35. Bit rate mode                            : Constant
  36. Bit rate                                 : 640 kb/s
  37. Channel(s)                               : 6 channels
  38. Channel positions                        : Front: L C R, Side: L R, LFE
  39. Sampling rate                            : 48.0 kHz
  40. Frame rate                               : 31.250 FPS (1536 SPF)
  41. Bit depth                                : 16 bits
  42. Compression mode                         : Lossy
  43. Stream size                              : 429 MiB (6%)
  44. Language                                 : English
  45. Service kind                             : Complete Main
  46. Default                                  : Yes
  47. Forced                                   : No

  48. Menu
  49. 00:00:00.000                             : en:00:00:00.000
  50. 00:06:07.033                             : en:00:06:07.033
  51. 00:18:11.716                             : en:00:18:11.716
  52. 00:25:01.250                             : en:00:25:01.250
  53. 00:32:26.278                             : en:00:32:26.278
  54. 00:44:08.521                             : en:00:44:08.521
  55. 00:51:50.858                             : en:00:51:50.858
  56. 00:55:37.167                             : en:00:55:37.167
  57. 01:02:05.263                             : en:01:02:05.263
  58. 01:14:40.393                             : en:01:14:40.393
  59. 01:26:12.542                             : en:01:26:12.542
复制代码

对比:肯·洛奇的生活和影片 Versus.The.Life.and.Films.of.Ken.Loach.2016.LIMITED.1080p.BluRay.x264-BiPOLAR 6.56GB-2.png







开通VIP免费下载本站所有资源---点这里
新手必看:资源下载常见问题---点这里
回复

使用道具 举报

 成长值: 670

发表于 2019-10-10 06:36:54 | 显示全部楼层

楼主,我太崇拜你了!我想我是一天也不能离开蓝光电影网
开通VIP免费下载本站所有资源---点这里
新手必看:资源下载常见问题---点这里
回复 支持 反对

使用道具 举报

懒得打字嘛,点击右侧快捷回复 【右侧内容,后台自定义】
您需要登录后才可以回帖 登录 | 立即加入

本版积分规则

现在加入蓝光电影网,注册一个账号

QQ| 手机版|小黑屋| 蓝光电影网 |网站地图

Copyright © 2015-2019 Comsenz Inc.  Template by 蓝光电影论坛 All Rights Reserved.

Powered by 蓝光电影网 X3.4

特别声明:本站所有资源均由网上收集而来,版权归原影音公司所有,如果侵犯了你的权益,请通知我们,我们会及时删除侵权内容.

快速回复 返回顶部 返回列表