找回密码

蓝光电影网

查看: 70|回复: 1

[喜剧] 定式人生 Fixed.2017.1080p.BluRay.x264.DTS-FGT 10.03GB

[复制链接]

 成长值: 1840

发表于 2019-10-9 17:33:17 | 显示全部楼层 |阅读模式
定式人生 Fixed.2017.1080p.BluRay.x264.DTS-FGT 10.03GB-1.png

译  名 定式人生 / Fixed.
片  名 Frozen Peas
年  代 2016
产  地 美国
类  别 喜剧
语  言 英语
上映日期 2017-03-04(美国)
IMDb评分  4.4/10 from 137 users
IMDb链接  http://www.imdb.com/title/tt4777004
豆瓣评分 0/10 from 0 users
豆瓣链接 https://movie.douban.com/subject/26764456/
片  长 93分钟
导  演 Alonso Mayo
编  剧 Bryan Erwin / Alonso Mayo
主  演 阿兰·卢克 Alan Ruck
       埃瑞恩·海耶斯 Erinn Hayes
       Jacqui Holland


标  签 电影 | 喜剧 | 一流

简  介  

  Allan is a married father of three whose sex life takes another hit when his wife can no longer take the pill. He soon finds himself with an appointment for a vasectomy and a nagging identity crisis. Although he is by all reasonable accounts a good, responsible man, the thought of getting "fixed" drives him to lose himself to an action-packed midlife crisis along with his best friends. Allan will refuse to grow up anymore.
  1. Video
  2. ID                                       : 1
  3. Format                                   : AVC
  4. Format/Info                              : Advanced Video Codec
  5. Format profile                           : High@L4
  6. Format settings                          : CABAC / 5 Ref Frames
  7. Format settings, CABAC                   : Yes
  8. Format settings, Reference frames        : 5 frames
  9. Codec ID                                 : V_MPEG4/ISO/AVC
  10. Duration                                 : 1 h 31 min
  11. Bit rate                                 : 14.1 Mb/s
  12. Width                                    : 1 920 pixels
  13. Height                                   : 806 pixels
  14. Display aspect ratio                     : 2.40:1
  15. Frame rate mode                          : Constant
  16. Frame rate                               : 23.976 (24000/1001) FPS
  17. Color space                              : YUV
  18. Chroma subsampling                       : 4:2:0
  19. Bit depth                                : 8 bits
  20. Scan type                                : Progressive
  21. Bits/(Pixel*Frame)                       : 0.381
  22. Stream size                              : 9.07 GiB (90%)
  23. Title                                    : Fixed.2017.1080p.BluRay.x264.DTS-FGT
  24. Language                                 : English
  25. Default                                  : Yes
  26. Forced                                   : No

  27. Audio
  28. ID                                       : 2
  29. Format                                   : DTS
  30. Format/Info                              : Digital Theater Systems
  31. Codec ID                                 : A_DTS
  32. Duration                                 : 1 h 31 min
  33. Bit rate mode                            : Constant
  34. Bit rate                                 : 1 509 kb/s
  35. Channel(s)                               : 6 channels
  36. Channel layout                           : C L R Ls Rs LFE
  37. Sampling rate                            : 48.0 kHz
  38. Frame rate                               : 93.750 FPS (512 SPF)
  39. Bit depth                                : 24 bits
  40. Compression mode                         : Lossy
  41. Stream size                              : 990 MiB (10%)
  42. Title                                    : Fixed.2017.1080p.BluRay.x264.DTS-FGT
  43. Language                                 : English
  44. Default                                  : Yes
  45. Forced                                   : No

  46. Text
  47. ID                                       : 3
  48. Format                                   : UTF-8
  49. Codec ID                                 : S_TEXT/UTF8
  50. Codec ID/Info                            : UTF-8 Plain Text
  51. Duration                                 : 1 h 31 min
  52. Bit rate                                 : 113 b/s
  53. Count of elements                        : 2461
  54. Stream size                              : 75.9 KiB (0%)
  55. Language                                 : English
  56. Default                                  : Yes
  57. Forced                                   : No
复制代码

定式人生 Fixed.2017.1080p.BluRay.x264.DTS-FGT 10.03GB-2.png 定式人生 Fixed.2017.1080p.BluRay.x264.DTS-FGT 10.03GB-3.png 定式人生 Fixed.2017.1080p.BluRay.x264.DTS-FGT 10.03GB-4.png







开通VIP免费下载本站所有资源---点这里
新手必看:资源下载常见问题---点这里
回复

使用道具 举报

 成长值: 4280

发表于 2019-10-10 16:02:47 | 显示全部楼层
DDDDDDDDDDDDDDDDD
开通VIP免费下载本站所有资源---点这里
新手必看:资源下载常见问题---点这里
回复 支持 反对

使用道具 举报

懒得打字嘛,点击右侧快捷回复 【右侧内容,后台自定义】
您需要登录后才可以回帖 登录 | 立即加入

本版积分规则

现在加入蓝光电影网,注册一个账号

QQ| 手机版|小黑屋| 蓝光电影网 |网站地图

Copyright © 2015-2019 Comsenz Inc.  Template by 蓝光电影论坛 All Rights Reserved.

Powered by 蓝光电影网 X3.4

特别声明:本站所有资源均由网上收集而来,版权归原影音公司所有,如果侵犯了你的权益,请通知我们,我们会及时删除侵权内容.

快速回复 返回顶部 返回列表