找回密码

蓝光电影网

查看: 216|回复: 4

[动作] 破·局 Peace.Breaker.2017.CHINESE.1080p.BluRay.x264-WiKi 10.48GB

[复制链接]

 成长值: 1840

发表于 2019-10-9 17:31:36 | 显示全部楼层 |阅读模式
破·局 Peace.Breaker.2017.CHINESE.1080p.BluRay.x264-WiKi 10.48GB-1.png

译  名 Peace Breaker / 肇事者 / 走到尽头
片  名 破·局
年  代 2017
产  地 中国大陆
类  别 动作 / 犯罪
语  言 汉语普通话
上映日期 2017-08-17(中国大陆)
IMDb评分  6.1/10 from 344 users
IMDb链接  http://www.imdb.com/title/tt7180392
豆瓣评分 6.2/10 from 48108 users
豆瓣链接 https://movie.douban.com/subject/26760160/
片  长 112分钟
导  演 连奕琦 Yi-chi Lien
编  剧 林宇辰 / 于尚民
主  演 郭富城 Aaron Kwok
       王千源 Qianyuan Wang
       刘涛 Tao Liu
       余皑磊 Ailei Yu
       冯嘉怡 Jiayi Feng
       郑凯 Kai Zheng


标  签 犯罪 | 悬疑 | 动作 | 黑色幽默 | 2017 | 剧情 | 翻拍 | 喜剧

简  介  

  这是高见翔警官生命中最艰难的一天:母亲去世,工作遇阻,还在奔丧时意外撞死了一个人。他本以为可以瞒天过海,没想到一个惊天阴谋在前方等待,令他身陷迷局......
  1. Video
  2. ID                                       : 1
  3. Format                                   : AVC
  4. Format/Info                              : Advanced Video Codec
  5. Format profile                           : High@L4
  6. Format settings                          : CABAC / 5 Ref Frames
  7. Format settings, CABAC                   : Yes
  8. Format settings, Reference frames        : 5 frames
  9. Codec ID                                 : V_MPEG4/ISO/AVC
  10. Duration                                 : 1 h 52 min
  11. Bit rate                                 : 12.7 Mb/s
  12. Width                                    : 1 920 pixels
  13. Height                                   : 804 pixels
  14. Display aspect ratio                     : 2.40:1
  15. Frame rate mode                          : Constant
  16. Frame rate                               : 24.000 FPS
  17. Color space                              : YUV
  18. Chroma subsampling                       : 4:2:0
  19. Bit depth                                : 8 bits
  20. Scan type                                : Progressive
  21. Bits/(Pixel*Frame)                       : 0.343
  22. Stream size                              : 9.97 GiB (95%)
  23. Writing library                          : x264 core 142 r2431+42 c69a006 tMod [High@L4 X86_64]
  24. Encoding settings                        : cabac=1 / ref=5 / deblock=1:-3:-3 / analyse=0x3:0x133 / me=umh / subme=11 / psy=1 / fade_compensate=0.00 / psy_rd=1.00:0.05 / mixed_ref=1 / me_range=64 / chroma_me=1 / trellis=2 / 8x8dct=1 / cqm=0 / deadzone=21,11 / fast_pskip=0 / chroma_qp_offset=-1 / threads=12 / lookahead_threads=3 / sliced_threads=0 / nr=0 / decimate=0 / interlaced=0 / bluray_compat=0 / constrained_intra=0 / fgo=0 / bframes=10 / b_pyramid=2 / b_adapt=2 / b_bias=0 / direct=3 / weightb=1 / open_gop=0 / weightp=2 / keyint=250 / keyint_min=24 / scenecut=40 / intra_refresh=0 / rc_lookahead=80 / rc=crf / mbtree=0 / crf=17.0000 / qcomp=0.70 / qpmin=0:0:0 / qpmax=69:69:69 / qpstep=4 / vbv_maxrate=50000 / vbv_bufsize=50000 / crf_max=0.0 / nal_hrd=none / filler=0 / ip_ratio=1.40 / pb_ratio=1.30 / aq=1:0.80 / aq-sensitivity=10.00 / aq-factor=1.00:1.00:1.00 / aq2=0 / aq3=0
  25. Language                                 : Chinese
  26. Default                                  : Yes
  27. Forced                                   : No
  28. Color range                              : Limited
  29. Matrix coefficients                      : BT.709

  30. Audio
  31. ID                                       : 2
  32. Format                                   : AC-3
  33. Format/Info                              : Audio Coding 3
  34. Commercial name                          : Dolby Digital
  35. Codec ID                                 : A_AC3
  36. Duration                                 : 1 h 52 min
  37. Bit rate mode                            : Constant
  38. Bit rate                                 : 640 kb/s
  39. Channel(s)                               : 6 channels
  40. Channel layout                           : L R C LFE Ls Rs
  41. Sampling rate                            : 48.0 kHz
  42. Frame rate                               : 31.250 FPS (1536 SPF)
  43. Bit depth                                : 16 bits
  44. Compression mode                         : Lossy
  45. Stream size                              : 513 MiB (5%)
  46. Language                                 : Chinese
  47. Service kind                             : Complete Main
  48. Default                                  : Yes
  49. Forced                                   : No

  50. Text #1
  51. ID                                       : 3
  52. Format                                   : UTF-8
  53. Codec ID                                 : S_TEXT/UTF8
  54. Codec ID/Info                            : UTF-8 Plain Text
  55. Duration                                 : 1 h 43 min
  56. Bit rate                                 : 36 b/s
  57. Count of elements                        : 1212
  58. Stream size                              : 27.3 KiB (0%)
  59. Language                                 : English
  60. Default                                  : Yes
  61. Forced                                   : No

  62. Text #2
  63. ID                                       : 4
  64. Format                                   : UTF-8
  65. Codec ID                                 : S_TEXT/UTF8
  66. Codec ID/Info                            : UTF-8 Plain Text
  67. Duration                                 : 1 h 43 min
  68. Bit rate                                 : 28 b/s
  69. Count of elements                        : 1212
  70. Stream size                              : 21.9 KiB (0%)
  71. Title                                    : CHS
  72. Language                                 : Chinese
  73. Default                                  : No
  74. Forced                                   : No

  75. Text #3
  76. ID                                       : 5
  77. Format                                   : UTF-8
  78. Codec ID                                 : S_TEXT/UTF8
  79. Codec ID/Info                            : UTF-8 Plain Text
  80. Duration                                 : 1 h 43 min
  81. Bit rate                                 : 28 b/s
  82. Count of elements                        : 1212
  83. Stream size                              : 21.9 KiB (0%)
  84. Title                                    : CHT
  85. Language                                 : Chinese
  86. Default                                  : No
  87. Forced                                   : No

  88. Menu
  89. 00:00:00.000                             : en:00:00:00.000
  90. 00:07:15.375                             : en:00:07:15.375
  91. 00:12:23.667                             : en:00:12:23.667
  92. 00:16:15.875                             : en:00:16:15.875
  93. 00:22:04.292                             : en:00:22:04.292
  94. 00:29:07.000                             : en:00:29:07.000
  95. 00:35:41.167                             : en:00:35:41.167
  96. 00:40:49.500                             : en:00:40:49.500
  97. 00:47:08.542                             : en:00:47:08.542
  98. 00:51:09.792                             : en:00:51:09.792
  99. 00:56:07.125                             : en:00:56:07.125
  100. 01:02:03.958                             : en:01:02:03.958
  101. 01:06:05.167                             : en:01:06:05.167
  102. 01:14:46.958                             : en:01:14:46.958
  103. 01:17:27.000                             : en:01:17:27.000
  104. 01:23:00.417                             : en:01:23:00.417
  105. 01:26:34.583                             : en:01:26:34.583
  106. 01:31:26.583                             : en:01:31:26.583
  107. 01:38:42.375                             : en:01:38:42.375
  108. 01:45:17.333                             : en:01:45:17.333
复制代码

破·局 Peace.Breaker.2017.CHINESE.1080p.BluRay.x264-WiKi 10.48GB-2.png 破·局 Peace.Breaker.2017.CHINESE.1080p.BluRay.x264-WiKi 10.48GB-3.png 破·局 Peace.Breaker.2017.CHINESE.1080p.BluRay.x264-WiKi 10.48GB-4.png







开通VIP免费下载本站所有资源---点这里
新手必看:资源下载常见问题---点这里
回复

使用道具 举报

发表于 2019-10-9 19:35:45 | 显示全部楼层
还行,中规中矩,没什么亮点,也不是很烂
开通VIP免费下载本站所有资源---点这里
新手必看:资源下载常见问题---点这里
回复 支持 反对

使用道具 举报

发表于 2019-10-10 20:01:14 | 显示全部楼层
楼主发贴辛苦了,谢谢楼主分享!我觉得蓝光电影网是注册对了!
开通VIP免费下载本站所有资源---点这里
新手必看:资源下载常见问题---点这里
回复 支持 反对

使用道具 举报

发表于 2019-10-10 21:06:07 | 显示全部楼层

这东西我收了!谢谢楼主!蓝光电影网真好!
开通VIP免费下载本站所有资源---点这里
新手必看:资源下载常见问题---点这里
回复 支持 反对

使用道具 举报

发表于 5 天前 | 显示全部楼层
楼主发贴辛苦了,谢谢楼主分享!我觉得蓝光电影网是注册对了!
开通VIP免费下载本站所有资源---点这里
新手必看:资源下载常见问题---点这里
回复 支持 反对

使用道具 举报

懒得打字嘛,点击右侧快捷回复 【右侧内容,后台自定义】
您需要登录后才可以回帖 登录 | 立即加入

本版积分规则

现在加入蓝光电影网,注册一个账号

QQ| 手机版|小黑屋| 蓝光电影网 |网站地图

Copyright © 2015-2019 Comsenz Inc.  Template by 蓝光电影论坛 All Rights Reserved.

Powered by 蓝光电影网 X3.4

特别声明:本站所有资源均由网上收集而来,版权归原影音公司所有,如果侵犯了你的权益,请通知我们,我们会及时删除侵权内容.

快速回复 返回顶部 返回列表