找回密码

蓝光电影网

查看: 287|回复: 10

[10bit.HDR] 超人之死与超人归来 The.Death.and.Return.of.Superman.2019.2160p.UHD.BluRay.X265.10bit.HDR.DTS-HD.MA.5.1-AViATOR 8.21GB

[复制链接]

 成长值: 1795

发表于 2019-10-6 16:09:09 | 显示全部楼层 |阅读模式
超人之死与超人归来 The.Death.and.Return.of.Superman.2019.2160p.UHD.BluRay.X265.10bit.HDR.DTS-HD.MA.5.1-AViATOR 8.21GB-1.png

译  名 超人之死与超人归来
片  名 The Death and Return of Superman
年  代 2019
产  地 美国
类  别 动画
语  言 英语
上映日期 2019-10-01(美国)
IMDb链接  http://www.imdb.com/title/tt11043546
豆瓣评分 0/10 from 0 users
豆瓣链接 https://movie.douban.com/subject/34845738/
片  长 166分钟
导  演 杰克·卡斯托雷纳 Jake Castorena / 刘山姆 Sam Liu
编  剧 比尔·芬格 Bill Finger
主  演 杰瑞·奥康奈尔 Jerry O'Connell
       丽贝卡·罗梅恩 Rebecca Romijn
       罗莎里奥·道森 Rosario Dawson
       耐姆比·耐姆比 Nyambi Nyambi
       乔纳森·亚当斯 Jonathan Adams
       洛奇·卡罗尔 Rocky Carroll
       特雷弗·德瓦 Trevor Devall
       保罗·伊丁 Paul Eiding
       詹妮弗·黑尔 Jennifer Hale
       查尔斯·哈尔福德 Charles Halford
       艾丽卡·鲁特雷尔 Erica Luttrell
       马克斯·迈特尔曼 Max Mittelman
       托克斯·奥拉贡多耶 Toks Olagundoye
       里克·帕斯夸隆 Rick Pasqualone
       Amanda Troop


简  介  

  The Death of Superman and Reign of the Supermen now presented as an over two-hour unabridged and seamless animated feature. Witness the no-holds-barred battle between the Justice League and an unstoppable alien force known only as Doomsday, a battle that only Superman can finish and will forever change the face of Metropolis.
  The Death and Return of Superman finds Superman in a fight to the finish when the Man of Steel becomes the only hero who can stand in the way of the monstrous creature Doomsday and his unstoppable rampage. Superman saves the planet, but not himself, leaving Earth’s citizens – and his heroic contemporaries – dealing with a world without Superman. The aftermath of Superman’s death, and the subsequent disappearance of his body, leads to a new mystery – is Superman still alive? The question is further complicated when four new super-powered individuals – Steel, Cyborg Superman, Superboy and the Eradicator – emerge to proclaim themselves as the ultimate hero. In the end, only one will be able to proclaim himself the world’s true Superman.

  1. Video
  2. ID                                       : 1
  3. Format                                   : HEVC
  4. Format/Info                              : High Efficiency Video Coding
  5. Format profile                           : Main 10@L5.1@High
  6. HDR format                               : SMPTE ST 2086, HDR10 compatible
  7. Codec ID                                 : V_MPEGH/ISO/HEVC
  8. Duration                                 : 2 h 46 min
  9. Bit rate                                 : 4 607 kb/s
  10. Width                                    : 3 840 pixels
  11. Height                                   : 2 160 pixels
  12. Display aspect ratio                     : 16:9
  13. Frame rate mode                          : Constant
  14. Frame rate                               : 23.976 (24000/1001) FPS
  15. Color space                              : YUV
  16. Chroma subsampling                       : 4:2:0 (Type 2)
  17. Bit depth                                : 10 bits
  18. Bits/(Pixel*Frame)                       : 0.023
  19. Stream size                              : 5.36 GiB (66%)
  20. Writing library                          : x265 3.1+20-913823aa15cd:[Windows][GCC 6.3.0][64 bit] 10bit
  21. Encoding settings                        : cpuid=1111039 / frame-threads=4 / numa-pools=20 / wpp / no-pmode / no-pme / no-psnr / no-ssim / log-level=2 / input-csp=1 / input-res=3840x2160 / interlace=0 / total-frames=239440 / level-idc=51 / high-tier=1 / uhd-bd=1 / ref=4 / no-allow-non-conformance / repeat-headers / annexb / aud / hrd / info / hash=0 / no-temporal-layers / no-open-gop / min-keyint=1 / keyint=24 / gop-lookahead=0 / bframes=4 / b-adapt=2 / b-pyramid / bframe-bias=0 / rc-lookahead=25 / lookahead-slices=4 / scenecut=40 / radl=0 / no-splice / no-intra-refresh / ctu=64 / min-cu-size=8 / rect / no-amp / max-tu-size=32 / tu-inter-depth=1 / tu-intra-depth=1 / limit-tu=0 / rdoq-level=2 / dynamic-rd=0.00 / no-ssim-rd / signhide / no-tskip / nr-intra=0 / nr-inter=0 / no-constrained-intra / no-strong-intra-smoothing / max-merge=3 / limit-refs=3 / limit-modes / me=3 / subme=3 / merange=57 / temporal-mvp / no-hme / weightp / no-weightb / no-analyze-src-pics / deblock=-3:-3 / no-sao / no-sao-non-deblock / rd=4 / selective-sao=0 / no-early-skip / rskip / no-fast-intra / no-tskip-fast / no-cu-lossless / no-b-intra / no-splitrd-skip / rdpenalty=0 / psy-rd=2.00 / psy-rdoq=1.00 / no-rd-refine / no-lossless / cbqpoffs=0 / crqpoffs=0 / rc=crf / crf=17.0 / qcomp=0.60 / qpstep=4 / stats-write=0 / stats-read=0 / vbv-maxrate=160000 / vbv-bufsize=160000 / vbv-init=0.9 / crf-max=0.0 / crf-min=0.0 / ipratio=1.40 / pbratio=1.30 / aq-mode=1 / aq-strength=1.00 / cutree / zone-count=0 / no-strict-cbr / qg-size=32 / no-rc-grain / qpmax=69 / qpmin=0 / no-const-vbv / sar=1 / overscan=0 / videoformat=5 / range=0 / colorprim=9 / transfer=16 / colormatrix=9 / chromaloc=1 / chromaloc-top=2 / chromaloc-bottom=2 / display-window=0 / master-display=G(13250,34500)B(7500,3000)R(34000,16000)WP(15635,16450)L(40000000,50) / cll=999,402 / min-luma=0 / max-luma=1023 / log2-max-poc-lsb=8 / vui-timing-info / vui-hrd-info / slices=1 / no-opt-qp-pps / no-opt-ref-list-length-pps / no-multi-pass-opt-rps / scenecut-bias=0.05 / no-opt-cu-delta-qp / no-aq-motion / hdr / hdr-opt / no-dhdr10-opt / no-idr-recovery-sei / analysis-reuse-level=5 / scale-factor=0 / refine-intra=0 / refine-inter=0 / refine-mv=1 / refine-ctu-distortion=0 / no-limit-sao / ctu-info=0 / no-lowpass-dct / refine-analysis-type=0 / copy-pic=1 / max-ausize-factor=1.0 / no-dynamic-refine / no-single-sei / no-hevc-aq / no-svt / no-field / qp-adaptation-range=1.00
  22. Default                                  : Yes
  23. Forced                                   : No
  24. Color range                              : Limited
  25. Color primaries                          : BT.2020
  26. Transfer characteristics                 : PQ
  27. Matrix coefficients                      : BT.2020 non-constant
  28. Mastering display color primaries        : Display P3
  29. Mastering display luminance              : min: 0.0050 cd/m2, max: 4000 cd/m2
  30. Maximum Content Light Level              : 999 cd/m2
  31. Maximum Frame-Average Light Level        : 402 cd/m2

  32. Audio
  33. ID                                       : 2
  34. Format                                   : DTS XLL
  35. Format/Info                              : Digital Theater Systems
  36. Commercial name                          : DTS-HD Master Audio
  37. Codec ID                                 : A_DTS
  38. Duration                                 : 2 h 46 min
  39. Bit rate mode                            : Variable
  40. Bit rate                                 : 2 364 kb/s
  41. Channel(s)                               : 6 channels
  42. Channel layout                           : C L R Ls Rs LFE
  43. Sampling rate                            : 48.0 kHz
  44. Frame rate                               : 93.750 FPS (512 SPF)
  45. Bit depth                                : 24 bits
  46. Compression mode                         : Lossless
  47. Stream size                              : 2.75 GiB (34%)
  48. Language                                 : English
  49. Default                                  : Yes
  50. Forced                                   : No

  51. Text #1
  52. ID                                       : 3
  53. Format                                   : PGS
  54. Muxing mode                              : zlib
  55. Codec ID                                 : S_HDMV/PGS
  56. Codec ID/Info                            : Picture based subtitle format used on BDs/HD-DVDs
  57. Duration                                 : 2 h 45 min
  58. Bit rate                                 : 31.1 kb/s
  59. Count of elements                        : 4282
  60. Stream size                              : 36.9 MiB (0%)
  61. Title                                    : SDH
  62. Language                                 : English
  63. Default                                  : No
  64. Forced                                   : No

  65. Text #2
  66. ID                                       : 4
  67. Format                                   : PGS
  68. Muxing mode                              : zlib
  69. Codec ID                                 : S_HDMV/PGS
  70. Codec ID/Info                            : Picture based subtitle format used on BDs/HD-DVDs
  71. Duration                                 : 2 h 45 min
  72. Bit rate                                 : 27.3 kb/s
  73. Count of elements                        : 3734
  74. Stream size                              : 32.3 MiB (0%)
  75. Language                                 : French
  76. Default                                  : No
  77. Forced                                   : No

  78. Text #3
  79. ID                                       : 5
  80. Format                                   : PGS
  81. Muxing mode                              : zlib
  82. Codec ID                                 : S_HDMV/PGS
  83. Codec ID/Info                            : Picture based subtitle format used on BDs/HD-DVDs
  84. Duration                                 : 2 h 45 min
  85. Bit rate                                 : 28.6 kb/s
  86. Count of elements                        : 3750
  87. Stream size                              : 33.8 MiB (0%)
  88. Language                                 : Spanish
  89. Default                                  : No
  90. Forced                                   : No

  91. Menu
  92. 00:00:00.000                             : :Chapter 01
  93. 00:07:48.927                             : :Chapter 02
  94. 00:14:28.034                             : :Chapter 03
  95. 00:25:28.193                             : :Chapter 04
  96. 00:33:27.839                             : :Chapter 05
  97. 00:43:19.847                             : :Chapter 06
  98. 00:50:19.767                             : :Chapter 07
  99. 01:00:19.282                             : :Chapter 08
  100. 01:09:33.878                             : :Chapter 09
  101. 01:18:22.656                             : :Chapter 10
  102. 01:26:38.693                             : :Chapter 11
  103. 01:32:43.266                             : :Chapter 12
  104. 01:40:51.879                             : :Chapter 13
  105. 01:51:19.965                             : :Chapter 14
  106. 01:59:28.119                             : :Chapter 15
  107. 02:08:28.743                             : :Chapter 16
  108. 02:17:40.127                             : :Chapter 17
  109. 02:27:44.064                             : :Chapter 18
  110. 02:35:26.317                             : :Chapter 19
  111. 02:42:50.094                             : :Chapter 20
复制代码
202619fiud77z4h6iqsc6u.png 202622sm1l0vv1uvsytyzs.png 202620lbblx6koy6bok2uy.png




开通VIP免费下载本站所有资源---点这里
新手必看:资源下载常见问题---点这里
回复

使用道具 举报

发表于 2019-10-6 18:19:22 | 显示全部楼层

这东西我收了!谢谢楼主!蓝光电影网真好!
开通VIP免费下载本站所有资源---点这里
新手必看:资源下载常见问题---点这里
回复 支持 反对

使用道具 举报

发表于 2019-10-7 07:10:39 | 显示全部楼层
楼主发贴辛苦了,谢谢楼主分享!我觉得蓝光电影网是注册对了!
开通VIP免费下载本站所有资源---点这里
新手必看:资源下载常见问题---点这里
回复 支持 反对

使用道具 举报

发表于 2019-10-7 08:26:41 | 显示全部楼层
楼主发贴辛苦了,谢谢楼主分享!我觉得蓝光电影网是注册对了!
开通VIP免费下载本站所有资源---点这里
新手必看:资源下载常见问题---点这里
回复 支持 反对

使用道具 举报

发表于 2019-10-7 09:10:29 | 显示全部楼层
开通VIP免费下载本站所有资源---点这里
新手必看:资源下载常见问题---点这里
回复 支持 反对

使用道具 举报

发表于 2019-10-7 10:52:26 | 显示全部楼层
真是难得给力的帖子啊。
开通VIP免费下载本站所有资源---点这里
新手必看:资源下载常见问题---点这里
回复 支持 反对

使用道具 举报

发表于 2019-10-7 11:50:01 | 显示全部楼层

这东西我收了!谢谢楼主!蓝光电影网真好!
开通VIP免费下载本站所有资源---点这里
新手必看:资源下载常见问题---点这里
回复 支持 反对

使用道具 举报

发表于 2019-10-7 17:52:09 | 显示全部楼层

楼主太厉害了!楼主,电影应该很好看我觉得蓝光电影网真是个好地方!
开通VIP免费下载本站所有资源---点这里
新手必看:资源下载常见问题---点这里
回复 支持 反对

使用道具 举报

发表于 2019-10-7 21:20:25 | 显示全部楼层
想要国语版。
开通VIP免费下载本站所有资源---点这里
新手必看:资源下载常见问题---点这里
回复 支持 反对

使用道具 举报

发表于 2019-10-7 21:22:28 | 显示全部楼层
怎么没有啊????现在回复不加了
开通VIP免费下载本站所有资源---点这里
新手必看:资源下载常见问题---点这里
回复 支持 反对

使用道具 举报

懒得打字嘛,点击右侧快捷回复 【右侧内容,后台自定义】
您需要登录后才可以回帖 登录 | 立即加入

本版积分规则

现在加入蓝光电影网,注册一个账号

QQ| 手机版|小黑屋| 蓝光电影网 |网站地图

Copyright © 2015-2019 Comsenz Inc.  Template by 蓝光电影论坛 All Rights Reserved.

Powered by 蓝光电影网 X3.4

特别声明:本站所有资源均由网上收集而来,版权归原影音公司所有,如果侵犯了你的权益,请通知我们,我们会及时删除侵权内容.

快速回复 返回顶部 返回列表