找回密码

蓝光电影网

查看: 173|回复: 3

[8bit.SDR] 超人之死 Superman.Doomsday.2007.2160p.BluRay.x264.8bit.SDR.DTS-HD.MA.5.1-SWTYBLZ 11.43GB

[复制链接]

 成长值: 1795

发表于 2019-10-6 13:14:21 | 显示全部楼层 |阅读模式
超人之死 Superman.Doomsday.2007.2160p.BluRay.x264.8bit.SDR.DTS-HD.MA.5.1-SWTYBLZ 11.43GB-1.png

译  名 超人之死
片  名 Superman Doomsday
年  代 2007
产  地 美国
类  别 剧情 / 动作 / 动画 / 冒险
语  言 英语 / 英语 / 西班牙语
上映日期 2007-09-18
IMDb评分  7.0/10 from 18504 users
IMDb链接  http://www.imdb.com/title/tt0934706
豆瓣评分 6.5/10 from 2009 users
豆瓣链接 https://movie.douban.com/subject/2255890/
片  长 75分钟
导  演 劳伦·蒙哥马利 Lauren Montgomery / 布鲁斯·提姆 Bruce W. Timm
主  演 亚当·鲍德温 Adam Baldwin
      安·海切 Anne Heche
      詹姆斯·马斯特斯 James Marsters


标  签 动画 | DC | 美国 | 超人 | 科幻 | 超级英雄 | 2007 | 漫画改编

简  介  

  故事旁白从雷克斯·路瑟开始,描述超人所作的英雄事迹及形象。雷克斯描述超人作为一个地球上的神,但坚持说“该来的时候,甚至是神也必须要死”。
露易丝·莲恩和超人正在浪漫的约会,但露意丝对他们的关系安排并不满意。超人坚持认为,两人的关系只能隐密地在孤独堡垒中度过。他还没有向他透露自己真实身份是克拉克·肯特,尽管露意丝已经开始怀疑。
另一方面雷克斯公司挖掘到一艘太空船,当工人正在执行挖掘的工作时不小心将基因改造的凶残怪物末日杀手释放。末日杀手将工人们全数杀害后一步步走到了都市,一路上将鹿、狗、狗的主人全都杀死。横冲直撞的末日杀手到达大都市后随即被超人发现,两人并展开大战。最后超人全力抓着它从高空直落撞击地面,露易丝与同事吉米·奥尔森告诉受重伤的超人已成功打倒敌人,但超人也因受伤过重而断了气。
世界集体哀悼他们倒下的英雄,并在公园建立了超人的纪念碑。后来雷克斯将他的女助理一枪杀死以确保再也没人知道雷克斯公司和末日杀手的出现有关。后来吉米对超人的死相当难过,意外地到了其他大间的报社上班。超人死后,犯罪率增加,玩具人操控著巨大机械蜘蛛并挟持了一辆戴满小孩的校车在屋顶上,露易丝决定将人质救出,便独自前往,但在遇到危机时,超人意外地及时出现制伏了玩具人。露易丝开心地和复活的超人一吻,后来超人的养母玛莎感到质疑为什么他没有打电话回家,露易丝也认为超人有点奇怪。
后来透露其实复活的超人是雷克斯制造的克隆人,雷克斯在超人与末日杀手一战时采集了前者的血液,因此复制超人只听命于雷克斯。后来雷克斯将复制超人引到了一间有红色太阳光的房间,并戴上氪石的手套不断打击他藉以发泄。打完后雷克斯便前去看他私自挖出的超人本尊尸体。但实际上超人还活着,并偷偷地被超人的机器人助手移到孤独堡垒中恢复。
复制超人在看到逃狱后的玩具人杀死了一名4岁的女孩的报导时,性格突然变得灰暗,即刻前去把玩具人杀掉,此作法使得周遭的人感到奇怪,警察也开始追捕他,露易丝认为他不是真的超人。后来露意丝和吉米发现了雷克斯想要复制超人大军的计划,在雷克斯正打算将两人解决时,突然复制超人出面帮助了两人且还将所有的复制超人试管全数破坏,因为复制超人自行将自己体内含铅的氪石拿出使得雷克斯无法控制他。
另一方面真正的超人在机器人助手的帮助下渐渐恢复力量,但后来听到有关军队和复制超人开战的消息便即时前往,但因力量只恢复了六成,机器人给他穿上了黑色的太阳超人装并将氪石枪交给超人。后来超人便和复制超人展开对战,超人的氪石枪被打飞至远处,超人持续处于下风,露易丝将氪石枪捡起并打算射复制超人时被对方破坏了枪,但氪石罐掉了出来。复制超人在石油地打倒超人时将一旁的纪念碑举起打算了结对方,超人用热力射线将黏于复制超人胸口的氪石罐打破冒出了大量的氪气体,复制超人因此败北。临死前,他告诉超人要保护人民。露易丝确定了他是真正的超人并亲吻了他,同时也赢得大家的信赖。
超人在露易丝的公寓,发现她的文章“复活”拼错,并戴上眼镜证明自己就是克拉克,露易丝便高兴地拥抱他。在雷克斯公司,雷克斯先前被复制超人打成重伤,但仍活着叙述历史已经证明,神可以死,但他们还可以回到从死里复活。他对自己微笑、沉思,可能又再想要如何摧毁超人。

  1. Video
  2. ID                                       : 1
  3. Format                                   : AVC
  4. Format/Info                              : Advanced Video Codec
  5. Format profile                           : High@L4
  6. Format settings                          : CABAC / 5 Ref Frames
  7. Format settings, CABAC                   : Yes
  8. Format settings, Reference frames        : 5 frames
  9. Codec ID                                 : V_MPEG4/ISO/AVC
  10. Duration                                 : 1 h 17 min
  11. Bit rate                                 : 16.8 Mb/s
  12. Width                                    : 3 840 pixels
  13. Height                                   : 2 160 pixels
  14. Display aspect ratio                     : 16:9
  15. Frame rate mode                          : Constant
  16. Frame rate                               : 23.976 (24000/1001) FPS
  17. Color space                              : YUV
  18. Chroma subsampling                       : 4:2:0
  19. Bit depth                                : 8 bits
  20. Scan type                                : Progressive
  21. Bits/(Pixel*Frame)                       : 0.084
  22. Stream size                              : 9.10 GiB (80%)
  23. Title                                    : Superman.Doomsday.2007.2160p.BluRay.x264.8bit.SDR.DTS-HD.MA.5.1-SWTYBLZ
  24. Writing library                          : x264 core 157 r2935 545de2f
  25. Encoding settings                        : cabac=1 / ref=5 / deblock=1:1:1 / analyse=0x3:0x113 / me=umh / subme=10 / psy=1 / psy_rd=0.40:0.00 / mixed_ref=1 / me_range=48 / chroma_me=1 / trellis=2 / 8x8dct=1 / cqm=0 / deadzone=21,11 / fast_pskip=1 / chroma_qp_offset=-2 / threads=48 / lookahead_threads=5 / sliced_threads=0 / nr=0 / decimate=0 / interlaced=0 / bluray_compat=0 / constrained_intra=0 / bframes=5 / b_pyramid=2 / b_adapt=2 / b_bias=0 / direct=3 / weightb=1 / open_gop=0 / weightp=2 / keyint=250 / keyint_min=23 / scenecut=40 / intra_refresh=0 / rc_lookahead=50 / rc=crf / mbtree=1 / crf=14.0 / qcomp=0.60 / qpmin=0 / qpmax=69 / qpstep=4 / ip_ratio=1.40 / aq=1:0.60
  26. Default                                  : Yes
  27. Forced                                   : No

  28. Audio #1
  29. ID                                       : 2
  30. Format                                   : DTS XLL
  31. Format/Info                              : Digital Theater Systems
  32. Commercial name                          : DTS-HD Master Audio
  33. Codec ID                                 : A_DTS
  34. Duration                                 : 1 h 17 min
  35. Bit rate mode                            : Variable
  36. Bit rate                                 : 3 451 kb/s
  37. Channel(s)                               : 6 channels
  38. Channel layout                           : C L R Ls Rs LFE
  39. Sampling rate                            : 48.0 kHz
  40. Frame rate                               : 93.750 FPS (512 SPF)
  41. Bit depth                                : 24 bits
  42. Compression mode                         : Lossless
  43. Stream size                              : 1.87 GiB (17%)
  44. Title                                    : Superman.Doomsday.2007.2160p.BluRay.x264.8bit.SDR.DTS-HD.MA.5.1-SWTYBLZ
  45. Language                                 : English
  46. Default                                  : Yes
  47. Forced                                   : No

  48. Audio #2
  49. ID                                       : 3
  50. Format                                   : AC-3
  51. Format/Info                              : Audio Coding 3
  52. Commercial name                          : Dolby Digital
  53. Codec ID                                 : A_AC3
  54. Duration                                 : 1 h 17 min
  55. Bit rate mode                            : Constant
  56. Bit rate                                 : 640 kb/s
  57. Channel(s)                               : 6 channels
  58. Channel layout                           : L R C LFE Ls Rs
  59. Sampling rate                            : 48.0 kHz
  60. Frame rate                               : 31.250 FPS (1536 SPF)
  61. Bit depth                                : 16 bits
  62. Compression mode                         : Lossy
  63. Stream size                              : 356 MiB (3%)
  64. Title                                    : Superman.Doomsday.2007.2160p.BluRay.x264.8bit.SDR.DTS-HD.MA.5.1-SWTYBLZ
  65. Language                                 : English
  66. Service kind                             : Complete Main
  67. Default                                  : No
  68. Forced                                   : No

  69. Text #1
  70. ID                                       : 4
  71. Format                                   : UTF-8
  72. Codec ID                                 : S_TEXT/UTF8
  73. Codec ID/Info                            : UTF-8 Plain Text
  74. Duration                                 : 1 h 14 min
  75. Bit rate                                 : 43 b/s
  76. Count of elements                        : 651
  77. Stream size                              : 23.8 KiB (0%)
  78. Title                                    : English-SRT
  79. Language                                 : English
  80. Default                                  : Yes
  81. Forced                                   : No

  82. Text #2
  83. ID                                       : 5
  84. Format                                   : PGS
  85. Muxing mode                              : zlib
  86. Codec ID                                 : S_HDMV/PGS
  87. Codec ID/Info                            : Picture based subtitle format used on BDs/HD-DVDs
  88. Duration                                 : 1 h 14 min
  89. Bit rate                                 : 27.3 kb/s
  90. Count of elements                        : 1568
  91. Stream size                              : 14.5 MiB (0%)
  92. Title                                    : English-PGS
  93. Language                                 : English
  94. Default                                  : No
  95. Forced                                   : No

  96. Menu
  97. 00:00:00.000                             : en:Chapter 01
  98. 00:03:10.899                             : en:Chapter 02
  99. 00:06:27.178                             : en:Chapter 03
  100. 00:08:52.156                             : en:Chapter 04
  101. 00:15:56.538                             : en:Chapter 05
  102. 00:21:53.770                             : en:Chapter 06
  103. 00:24:19.040                             : en:Chapter 07
  104. 00:28:10.188                             : en:Chapter 08
  105. 00:30:57.021                             : en:Chapter 09
  106. 00:32:41.209                             : en:Chapter 10
  107. 00:34:28.232                             : en:Chapter 11
  108. 00:37:23.866                             : en:Chapter 12
  109. 00:40:36.725                             : en:Chapter 13
  110. 00:43:43.203                             : en:Chapter 14
  111. 00:48:03.589                             : en:Chapter 15
  112. 00:54:03.907                             : en:Chapter 16
  113. 01:01:28.559                             : en:Chapter 17
  114. 01:09:54.440                             : en:Chapter 18
  115. 01:13:20.187                             : en:Chapter 19
  116. 01:14:40.976                             : en:Chapter 20
复制代码

超人之死 Superman.Doomsday.2007.2160p.BluRay.x264.8bit.SDR.DTS-HD.MA.5.1-SWTYBLZ 11.43GB-2.png 超人之死 Superman.Doomsday.2007.2160p.BluRay.x264.8bit.SDR.DTS-HD.MA.5.1-SWTYBLZ 11.43GB-3.png 超人之死 Superman.Doomsday.2007.2160p.BluRay.x264.8bit.SDR.DTS-HD.MA.5.1-SWTYBLZ 11.43GB-4.png 超人之死 Superman.Doomsday.2007.2160p.BluRay.x264.8bit.SDR.DTS-HD.MA.5.1-SWTYBLZ 11.43GB-5.png 超人之死 Superman.Doomsday.2007.2160p.BluRay.x264.8bit.SDR.DTS-HD.MA.5.1-SWTYBLZ 11.43GB-6.png 超人之死 Superman.Doomsday.2007.2160p.BluRay.x264.8bit.SDR.DTS-HD.MA.5.1-SWTYBLZ 11.43GB-8.png








开通VIP免费下载本站所有资源---点这里
新手必看:资源下载常见问题---点这里
回复

使用道具 举报

发表于 2019-10-6 13:45:06 | 显示全部楼层
楼主发贴辛苦了,谢谢楼主分享!我觉得蓝光电影网是注册对了!
开通VIP免费下载本站所有资源---点这里
新手必看:资源下载常见问题---点这里
回复 支持 反对

使用道具 举报

发表于 2019-10-7 09:13:47 | 显示全部楼层
开通VIP免费下载本站所有资源---点这里
新手必看:资源下载常见问题---点这里
回复 支持 反对

使用道具 举报

发表于 3 天前 | 显示全部楼层
楼主发贴辛苦了,谢谢楼主分享!我觉得蓝光电影网是注册对了!
开通VIP免费下载本站所有资源---点这里
新手必看:资源下载常见问题---点这里
回复 支持 反对

使用道具 举报

懒得打字嘛,点击右侧快捷回复 【右侧内容,后台自定义】
您需要登录后才可以回帖 登录 | 立即加入

本版积分规则

现在加入蓝光电影网,注册一个账号

QQ| 手机版|小黑屋| 蓝光电影网 |网站地图

Copyright © 2015-2019 Comsenz Inc.  Template by 蓝光电影论坛 All Rights Reserved.

Powered by 蓝光电影网 X3.4

特别声明:本站所有资源均由网上收集而来,版权归原影音公司所有,如果侵犯了你的权益,请通知我们,我们会及时删除侵权内容.

快速回复 返回顶部 返回列表