找回密码

蓝光电影网

查看: 286|回复: 3

[10bit.SDR] 天使之心/天使心 Angel.Heart.1987.2160p.BluRay.x265.10bit.SDR.DTS-HD.MA.5.1-SWTYBLZ 66.46GB

[复制链接]

 成长值: 1810

发表于 2019-9-20 23:01:20 | 显示全部楼层 |阅读模式
天使之心/天使心 Angel.Heart.1987.2160p.BluRay.x265.10bit.SDR.DTS-HD.MA.5.1-SWTYBLZ 66.46GB-1.png

◎译  名 天使之心 / 天使心 / 天使追魂 / 安格尔的心 / 赤裸天使
◎片  名 Angel Heart
◎年  代 1987
◎产  地 美国 / 加拿大 / 英国
◎类  别 悬疑 / 惊悚 / 恐怖
◎语  言 英语 / 法语
◎上映日期 1988-11-17
◎IMDb评分 7.3/10 from 73043 users
◎IMDb链接 http://www.imdb.com/title/tt0092563
◎豆瓣评分 7.0/10 from 1487 users
◎豆瓣链接 https://movie.douban.com/subject/1294764/
◎片  长 113 分钟
◎导  演 艾伦·帕克 Alan Parker
◎编  剧 William Hjortsberg / 艾伦·帕克 Alan Parker
◎主  演 罗伯特·德尼罗 Robert De Niro
      米基·洛克 Mickey Rourke
      莉莎·博内特 Lisa Bonet
      夏洛特·兰普林 Charlotte Rampling
      Stocker Fontelieu
      Brownie McGhee
      Michael Higgins
      Eliott Keener
      Charles Gordone
      Dann Florek
      凯瑟琳·威尔霍特 Kathleen Wilhoite


◎标  签 悬疑 | 美国 | 宗教 | 惊悚 | 罗伯特·德尼罗 | RobertDeNiro | AlanParker | 恐怖

◎简  介

  故事开始于1955年的纽约布鲁克林区,哈里·安格尔(米基·洛克 饰)是个胡子不剃、不停抽烟的私家侦探,专门调查离婚案。一天,一个自称叫路易斯·赛佛雷(罗伯特·德尼罗 饰)的神秘外国人找到了他,要他去寻找一个叫弗沃里特的歌唱家。这项任务钱很多,看起来也很轻松,哈里就接受了。 但是,哈里在调查中发现,自己所接触的每个与这件事情有关的人,都逐一被杀害:医生福勒、玛格丽特(夏洛特·兰普林 饰)、黑人音乐家图茨、伊桑。渐渐他发觉到事情的严重与神秘,自己也深陷其中,无法自拔。
本片改编自威廉·乔兹伯格的小说《堕落天使》。

  1. Video
  2. ID : 1
  3. Format : HEVC
  4. Format/Info : High Efficiency Video Coding
  5. Format profile : Main [email]10@L5.1[/email]@High
  6. Codec ID : V_MPEGH/ISO/HEVC
  7. Duration : 1 h 53 min
  8. Bit rate : 80.6 Mb/s
  9. Width : 3 840 pixels
  10. Height : 2 076 pixels
  11. Display aspect ratio : 1.85:1
  12. Frame rate mode : Constant
  13. Frame rate : 24.000 FPS
  14. Color space : YUV
  15. Chroma subsampling : 4:2:0
  16. Bit depth : 10 bits
  17. Bits/(Pixel*Frame) : 0.421
  18. Stream size : 63.7 GiB (96%)
  19. Title : Angel.Heart.1987.2160p.BluRay.x265.10bit.SDR.DTS-HD.MA.5.1-SWTYBLZ
  20. Writing library : x265 3.0ed72af837053:[Windows][GCC 8.2.0][64 bit] 10bit
  21. Encoding settings : cpuid=1111039 / frame-threads=16 / numa-pools=44,44 / wpp / no-pmode / no-pme / no-psnr / no-ssim / log-level=2 / input-csp=1 / input-res=3840x2076 / interlace=0 / total-frames=163002 / level-idc=51 / high-tier=1 / uhd-bd=0 / ref=3 / no-allow-non-conformance / repeat-headers / annexb / aud / hrd / info / hash=0 / no-temporal-layers / no-open-gop / min-keyint=1 / keyint=24 / gop-lookahead=0 / bframes=4 / b-adapt=2 / b-pyramid / bframe-bias=0 / rc-lookahead=25 / lookahead-slices=4 / scenecut=40 / radl=0 / no-splice / no-intra-refresh / ctu=64 / min-cu-size=8 / no-rect / no-amp / max-tu-size=32 / tu-inter-depth=1 / tu-intra-depth=1 / limit-tu=0 / rdoq-level=0 / dynamic-rd=0.00 / no-ssim-rd / signhide / no-tskip / nr-intra=0 / nr-inter=0 / no-constrained-intra / strong-intra-smoothing / max-merge=2 / limit-refs=3 / no-limit-modes / me=1 / subme=2 / merange=57 / temporal-mvp / weightp / no-weightb / no-analyze-src-pics / deblock=0:0 / no-sao / no-sao-non-deblock / rd=3 / no-early-skip / rskip / no-fast-intra / no-tskip-fast / no-cu-lossless / no-b-intra / no-splitrd-skip / rdpenalty=0 / psy-rd=2.00 / psy-rdoq=0.00 / no-rd-refine / no-lossless / cbqpoffs=0 / crqpoffs=0 / rc=crf / crf=18.0 / qcomp=0.60 / qpstep=4 / stats-write=0 / stats-read=0 / vbv-maxrate=160000 / vbv-bufsize=160000 / vbv-init=0.9 / crf-max=0.0 / crf-min=0.0 / ipratio=1.40 / pbratio=1.30 / aq-mode=1 / aq-strength=1.00 / cutree / zone-count=0 / no-strict-cbr / qg-size=32 / no-rc-grain / qpmax=69 / qpmin=0 / no-const-vbv / sar=1 / overscan=0 / videoformat=5 / range=0 / colorprim=2 / transfer=2 / colormatrix=2 / chromaloc=0 / display-window=0 / max-cll=0,0 / min-luma=0 / max-luma=1023 / log2-max-poc-lsb=8 / vui-timing-info / vui-hrd-info / slices=1 / opt-qp-pps / opt-ref-list-length-pps / no-multi-pass-opt-rps / scenecut-bias=0.05 / no-opt-cu-delta-qp / no-aq-motion / no-hdr / no-hdr-opt / no-dhdr10-opt / no-idr-recovery-sei / analysis-reuse-level=5 / scale-factor=0 / refine-intra=0 / refine-inter=0 / refine-mv=0 / refine-ctu-distortion=0 / no-limit-sao / ctu-info=0 / no-lowpass-dct / refine-analysis-type=0 / copy-pic=1 / max-ausize-factor=1.0 / no-dynamic-refine / no-single-sei / no-hevc-aq / qp-adaptation-range=1.00
  22. Default : Yes
  23. Forced : No

  24. Audio #1
  25. ID : 2
  26. Format : DTS XLL
  27. Format/Info : Digital Theater Systems
  28. Commercial name : DTS-HD Master Audio
  29. Codec ID : A_DTS
  30. Duration : 1 h 53 min
  31. Bit rate mode : Variable
  32. Bit rate : 2 461 kb/s
  33. Channel(s) : 6 channels
  34. Channel layout : C L R Ls Rs LFE
  35. Sampling rate : 48.0 kHz
  36. Frame rate : 93.750 FPS (512 SPF)
  37. Bit depth : 24 bits
  38. Compression mode : Lossless
  39. Stream size : 1.95 GiB (3%)
  40. Title : Angel.Heart.1987.2160p.BluRay.x265.10bit.SDR.DTS-HD.MA.5.1-SWTYBLZ
  41. Language : English
  42. Default : Yes
  43. Forced : No

  44. Audio #2
  45. ID : 3
  46. Format : AC-3
  47. Format/Info : Audio Coding 3
  48. Commercial name : Dolby Digital
  49. Codec ID : A_AC3
  50. Duration : 1 h 53 min
  51. Bit rate mode : Constant
  52. Bit rate : 640 kb/s
  53. Channel(s) : 6 channels
  54. Channel layout : L R C LFE Ls Rs
  55. Sampling rate : 48.0 kHz
  56. Frame rate : 31.250 FPS (1536 SPF)
  57. Bit depth : 16 bits
  58. Compression mode : Lossy
  59. Stream size : 518 MiB (1%)
  60. Title : Angel.Heart.1987.2160p.BluRay.x265.10bit.SDR.DTS-HD.MA.5.1-SWTYBLZ
  61. Language : English
  62. Service kind : Complete Main
  63. Default : No
  64. Forced : No

  65. Text #1
  66. ID : 4
  67. Format : UTF-8
  68. Codec ID : S_TEXT/UTF8
  69. Codec ID/Info : UTF-8 Plain Text
  70. Duration : 1 h 52 min
  71. Bit rate : 52 b/s
  72. Count of elements : 1076
  73. Stream size : 43.2 KiB (0%)
  74. Title : English-SRT
  75. Language : English
  76. Default : Yes
  77. Forced : No

  78. Text #2
  79. ID : 5
  80. Format : PGS
  81. Muxing mode : zlib
  82. Codec ID : S_HDMV/PGS
  83. Codec ID/Info : Picture based subtitle format used on BDs/HD-DVDs
  84. Duration : 1 h 49 min
  85. Bit rate : 28.7 kb/s
  86. Count of elements : 1716
  87. Stream size : 22.6 MiB (0%)
  88. Title : German-PGS
  89. Language : German
  90. Default : No
  91. Forced : No

  92. Text #3
  93. ID : 6
  94. Format : PGS
  95. Muxing mode : zlib
  96. Codec ID : S_HDMV/PGS
  97. Codec ID/Info : Picture based subtitle format used on BDs/HD-DVDs
  98. Duration : 1 h 49 min
  99. Bit rate : 23.6 kb/s
  100. Count of elements : 1828
  101. Stream size : 18.5 MiB (0%)
  102. Title : French-PGS
  103. Language : French
  104. Default : No
  105. Forced : No

  106. Menu
  107. 00:00:00.000 : en:Chapter 01
  108. 00:11:36.750 : en:Chapter 02
  109. 00:21:19.666 : en:Chapter 03
  110. 00:29:17.083 : en:Chapter 04
  111. 00:41:01.625 : en:Chapter 05
  112. 00:50:47.208 : en:Chapter 06
  113. 00:55:40.166 : en:Chapter 07
  114. 01:01:55.291 : en:Chapter 08
  115. 01:13:21.333 : en:Chapter 09
  116. 01:23:24.708 : en:Chapter 10
  117. 01:33:21.375 : en:Chapter 11
  118. 01:41:31.375 : en:Chapter 12
复制代码

天使之心/天使心 Angel.Heart.1987.2160p.BluRay.x265.10bit.SDR.DTS-HD.MA.5.1-SWTYBLZ 66.46GB-2.png 天使之心/天使心 Angel.Heart.1987.2160p.BluRay.x265.10bit.SDR.DTS-HD.MA.5.1-SWTYBLZ 66.46GB-3.png 天使之心/天使心 Angel.Heart.1987.2160p.BluRay.x265.10bit.SDR.DTS-HD.MA.5.1-SWTYBLZ 66.46GB-4.png 天使之心/天使心 Angel.Heart.1987.2160p.BluRay.x265.10bit.SDR.DTS-HD.MA.5.1-SWTYBLZ 66.46GB-5.png 天使之心/天使心 Angel.Heart.1987.2160p.BluRay.x265.10bit.SDR.DTS-HD.MA.5.1-SWTYBLZ 66.46GB-6.png 天使之心/天使心 Angel.Heart.1987.2160p.BluRay.x265.10bit.SDR.DTS-HD.MA.5.1-SWTYBLZ 66.46GB-7.png 天使之心/天使心 Angel.Heart.1987.2160p.BluRay.x265.10bit.SDR.DTS-HD.MA.5.1-SWTYBLZ 66.46GB-8.png







开通VIP免费下载本站所有资源---点这里
新手必看:资源下载常见问题---点这里
回复

使用道具 举报

发表于 2019-9-20 23:06:43 | 显示全部楼层
感谢楼主的无私分享
开通VIP免费下载本站所有资源---点这里
新手必看:资源下载常见问题---点这里
回复 支持 反对

使用道具 举报

发表于 2019-9-21 23:32:44 | 显示全部楼层

感谢楼主的无私分享
开通VIP免费下载本站所有资源---点这里
新手必看:资源下载常见问题---点这里
回复 支持 反对

使用道具 举报

已抛锚 成长值: 4335

发表于 2019-9-25 19:39:43 | 显示全部楼层


这东西我收了!谢谢楼主!蓝光电影网真好!
开通VIP免费下载本站所有资源---点这里
新手必看:资源下载常见问题---点这里
回复 支持 反对

使用道具 举报

懒得打字嘛,点击右侧快捷回复 【右侧内容,后台自定义】
您需要登录后才可以回帖 登录 | 立即加入

本版积分规则

现在加入蓝光电影网,注册一个账号

QQ| 手机版|小黑屋| 蓝光电影网 |网站地图

Copyright © 2015-2019 Comsenz Inc.  Template by 蓝光电影论坛 All Rights Reserved.

Powered by 蓝光电影网 X3.4

特别声明:本站所有资源均由网上收集而来,版权归原影音公司所有,如果侵犯了你的权益,请通知我们,我们会及时删除侵权内容.

快速回复 返回顶部 返回列表