找回密码

蓝光电影网

查看: 1645|回复: 43

[10bit.SDR] 昨日奇迹 Yesterday.2019.2160p.BluRay.x265.10bit.SDR.DTS-HD.MA.TrueHD.7.1.Atmos-SWTYBLZ 27.72GB

[复制链接]

 成长值: 1810

发表于 2019-9-15 18:17:17 | 显示全部楼层 |阅读模式
昨日奇迹 Yesterday.2019.2160p.BluRay.x265.10bit.SDR.DTS-HD.MA.TrueHD.7.1.Atmos-SWTYBLZ 27.72GB-1.png

译  名 昨日奇迹 / All You Need is Love / 你需要的只是爱 / 昨天 / 昨日 / 缘來自昨天(港) / 靠谱歌王(台)
片  名 Yesterday
年  代 2019
产  地 英国
类  别 喜剧 / 音乐 / 奇幻
语  言 英语
上映日期 2019-05-05(翠贝卡电影节) / 2019-06-28(英国) / 2019-08-16(中国大陆)
IMDb评分  7.0/10 from 31211 users
IMDb链接  http://www.imdb.com/title/tt8079248
豆瓣评分 6.6/10 from 3863 users
豆瓣链接 https://movie.douban.com/subject/30165034/
片  长 116分钟
导  演 丹尼·博伊尔 Danny Boyle
编  剧 杰克·巴斯 Jack Barth / 理查德·柯蒂斯 Richard Curtis
主  演 希米什·帕特尔 Himesh Patel
       莉莉·詹姆斯 Lily James
       艾德·希兰 Ed Sheeran
       凯特·麦克金农 Kate McKinnon
       阿历克斯·阿诺 Alexander Arnold
       乔尔·弗莱 Joel Fry
       詹姆斯·柯登 James Corden
       卡米利·陈 Camille Chen
       拉蒙尼·莫里斯 Lamorne Morris
       索菲娅·迪·马蒂诺 Sophia Di Martino
       卡米拉·拉瑟福德 Camilla Rutherford
       艾利斯·查普尔 Ellise Chappell
       莎拉·兰卡夏尔 Sarah Lancashire
       多米尼克·科尔曼 Dominic Coleman
       玛丽安娜·斯皮瓦克 Maryana Spivak
       詹妮弗·阿尔莫 Jennifer Armour
       安娜·德·阿玛斯 Ana de Armas
       哈廷·帕特尔 Hiten Patel
       阿图尔·夏尔马 Atul Sharma
       马诺伊·阿南德 Manoj Anand
       哈里·米歇尔 Harry Michell
       珊妮·姚 Sunny Yeo
       乔希·特雷特 Josh Trett
       西蒙·P·爱德华兹 Simon P Edwards


标  签 披头士 | 音乐 | 英国 | 喜剧 | 2019 | 摇滚 | 奇幻 | 平行穿越

简  介  

  杰克(希米什·帕特尔 饰)是英国一个海滨小镇上苦苦挣扎的创作型歌手,有着好友艾莉(莉莉·詹姆斯 饰)的一直支持。在一次神秘的全球大停电中发生了一起奇怪的公交车事故,杰克醒来后发现披头士乐队根本从未存在过。他正面临着非常复杂的问题。
  1. Video
  2. ID                                       : 1
  3. Format                                   : HEVC
  4. Format/Info                              : High Efficiency Video Coding
  5. Format profile                           : Main <a href="/cdn-cgi/l/email-protection" class="__cf_email__" data-cfemail="1524255559203b24">High@L4.1</a>@High
  6. Codec ID                                 : V_MPEGH/ISO/HEVC
  7. Duration                                 : 1 h 56 min
  8. Bit rate                                 : 26.1 Mb/s
  9. Width                                    : 3 840 pixels
  10. Height                                   : 1 606 pixels
  11. Display aspect ratio                     : 2.40:1
  12. Frame rate mode                          : Constant
  13. Frame rate                               : 23.976 (24000/1001) FPS
  14. Color space                              : YUV
  15. Chroma subsampling                       : 4:2:0
  16. Bit depth                                : 10 bits
  17. Bits/(Pixel*Frame)                       : 0.177
  18. Stream size                              : 21.2 GiB (77%)
  19. Title                                    : Yesterday.2019.2160p.BluRay.x265.10bit.SDR.DTS-HD.MA.TrueHD.7.1.Atmos-SWTYBLZ
  20. Writing library                          : x265 3.0ed72af837053:[Windows][GCC 8.2.0][64 bit] 10bit
  21. Encoding settings                        : cpuid=1111039 / frame-threads=16 / numa-pools=44,44 / wpp / no-pmode / no-pme / no-psnr / no-ssim / log-level=2 / input-csp=1 / input-res=3840x1606 / interlace=0 / total-frames=167216 / level-idc=51 / high-tier=1 / uhd-bd=0 / ref=3 / no-allow-non-conformance / repeat-headers / annexb / aud / hrd / info / hash=0 / no-temporal-layers / no-open-gop / min-keyint=1 / keyint=24 / gop-lookahead=0 / bframes=4 / b-adapt=2 / b-pyramid / bframe-bias=0 / rc-lookahead=25 / lookahead-slices=4 / scenecut=40 / radl=0 / no-splice / no-intra-refresh / ctu=64 / min-cu-size=8 / no-rect / no-amp / max-tu-size=32 / tu-inter-depth=1 / tu-intra-depth=1 / limit-tu=0 / rdoq-level=0 / dynamic-rd=0.00 / no-ssim-rd / signhide / no-tskip / nr-intra=0 / nr-inter=0 / no-constrained-intra / strong-intra-smoothing / max-merge=2 / limit-refs=3 / no-limit-modes / me=1 / subme=2 / merange=57 / temporal-mvp / weightp / no-weightb / no-analyze-src-pics / deblock=0:0 / no-sao / no-sao-non-deblock / rd=3 / no-early-skip / rskip / no-fast-intra / no-tskip-fast / no-cu-lossless / no-b-intra / no-splitrd-skip / rdpenalty=0 / psy-rd=2.00 / psy-rdoq=0.00 / no-rd-refine / no-lossless / cbqpoffs=0 / crqpoffs=0 / rc=crf / crf=14.0 / qcomp=0.60 / qpstep=4 / stats-write=0 / stats-read=0 / vbv-maxrate=160000 / vbv-bufsize=160000 / vbv-init=0.9 / crf-max=0.0 / crf-min=0.0 / ipratio=1.40 / pbratio=1.30 / aq-mode=1 / aq-strength=1.00 / cutree / zone-count=0 / no-strict-cbr / qg-size=32 / no-rc-grain / qpmax=69 / qpmin=0 / no-const-vbv / sar=1 / overscan=0 / videoformat=5 / range=0 / colorprim=2 / transfer=2 / colormatrix=2 / chromaloc=0 / display-window=0 / max-cll=0,0 / min-luma=0 / max-luma=1023 / log2-max-poc-lsb=8 / vui-timing-info / vui-hrd-info / slices=1 / opt-qp-pps / opt-ref-list-length-pps / no-multi-pass-opt-rps / scenecut-bias=0.05 / no-opt-cu-delta-qp / no-aq-motion / no-hdr / no-hdr-opt / no-dhdr10-opt / no-idr-recovery-sei / analysis-reuse-level=5 / scale-factor=0 / refine-intra=0 / refine-inter=0 / refine-mv=0 / refine-ctu-distortion=0 / no-limit-sao / ctu-info=0 / no-lowpass-dct / refine-analysis-type=0 / copy-pic=1 / max-ausize-factor=1.0 / no-dynamic-refine / no-single-sei / no-hevc-aq / qp-adaptation-range=1.00
  22. Default                                  : Yes
  23. Forced                                   : No

  24. Audio #1
  25. ID                                       : 2
  26. Format                                   : MLP FBA 16-ch
  27. Format/Info                              : Meridian Lossless Packing FBA with 16-channel presentation
  28. Commercial name                          : Dolby TrueHD with Dolby Atmos
  29. Codec ID                                 : A_TRUEHD
  30. Duration                                 : 1 h 56 min
  31. Bit rate mode                            : Variable
  32. Bit rate                                 : 3 272 kb/s
  33. Maximum bit rate                         : 5 664 kb/s
  34. Channel(s)                               : 8 channels
  35. Channel layout                           : L R C LFE Ls Rs Lb Rb
  36. Sampling rate                            : 48.0 kHz
  37. Frame rate                               : 1 200.000 FPS (40 SPF)
  38. Compression mode                         : Lossless
  39. Stream size                              : 2.66 GiB (10%)
  40. Title                                    : Yesterday.2019.2160p.BluRay.x265.10bit.SDR.DTS-HD.MA.TrueHD.7.1.Atmos-SWTYBLZ
  41. Language                                 : English
  42. Default                                  : Yes
  43. Forced                                   : No
  44. Number of dynamic objects                : 11
  45. Bed channel count                        : 1 channel
  46. Bed channel configuration                : LFE

  47. Audio #2
  48. ID                                       : 3
  49. Format                                   : DTS XLL
  50. Format/Info                              : Digital Theater Systems
  51. Commercial name                          : DTS-HD Master Audio
  52. Codec ID                                 : A_DTS
  53. Duration                                 : 1 h 56 min
  54. Bit rate mode                            : Variable
  55. Bit rate                                 : 4 024 kb/s
  56. Channel(s)                               : 8 channels
  57. Channel layout                           : C L R LFE Lb Rb Lss Rss
  58. Sampling rate                            : 48.0 kHz
  59. Frame rate                               : 93.750 FPS (512 SPF)
  60. Bit depth                                : 24 bits
  61. Compression mode                         : Lossless
  62. Stream size                              : 3.27 GiB (12%)
  63. Title                                    : Yesterday.2019.2160p.BluRay.x265.10bit.SDR.DTS-HD.MA.TrueHD.7.1.Atmos-SWTYBLZ
  64. Language                                 : English
  65. Default                                  : No
  66. Forced                                   : No

  67. Audio #3
  68. ID                                       : 4
  69. Format                                   : AC-3
  70. Format/Info                              : Audio Coding 3
  71. Commercial name                          : Dolby Digital
  72. Codec ID                                 : A_AC3
  73. Duration                                 : 1 h 56 min
  74. Bit rate mode                            : Constant
  75. Bit rate                                 : 448 kb/s
  76. Channel(s)                               : 6 channels
  77. Channel layout                           : L R C LFE Ls Rs
  78. Sampling rate                            : 48.0 kHz
  79. Frame rate                               : 31.250 FPS (1536 SPF)
  80. Bit depth                                : 16 bits
  81. Compression mode                         : Lossy
  82. Stream size                              : 372 MiB (1%)
  83. Title                                    : Yesterday.2019.2160p.BluRay.x265.10bit.SDR.DTS-HD.MA.TrueHD.7.1.Atmos-SWTYBLZ
  84. Language                                 : English
  85. Service kind                             : Complete Main
  86. Default                                  : No
  87. Forced                                   : No

  88. Text #1
  89. ID                                       : 5
  90. Format                                   : UTF-8
  91. Codec ID                                 : S_TEXT/UTF8
  92. Codec ID/Info                            : UTF-8 Plain Text
  93. Duration                                 : 1 h 55 min
  94. Bit rate                                 : 79 b/s
  95. Count of elements                        : 2244
  96. Stream size                              : 67.1 KiB (0%)
  97. Title                                    : English-SRT
  98. Language                                 : English
  99. Default                                  : Yes
  100. Forced                                   : No

  101. Text #2
  102. ID                                       : 6
  103. Format                                   : PGS
  104. Muxing mode                              : zlib
  105. Codec ID                                 : S_HDMV/PGS
  106. Codec ID/Info                            : Picture based subtitle format used on BDs/HD-DVDs
  107. Duration                                 : 1 h 54 min
  108. Bit rate                                 : 59.0 kb/s
  109. Count of elements                        : 4250
  110. Stream size                              : 48.5 MiB (0%)
  111. Title                                    : English-PGS
  112. Language                                 : English
  113. Default                                  : No
  114. Forced                                   : No

  115. Text #3
  116. ID                                       : 7
  117. Format                                   : PGS
  118. Muxing mode                              : zlib
  119. Codec ID                                 : S_HDMV/PGS
  120. Codec ID/Info                            : Picture based subtitle format used on BDs/HD-DVDs
  121. Duration                                 : 1 h 54 min
  122. Bit rate                                 : 40.7 kb/s
  123. Count of elements                        : 3065
  124. Stream size                              : 33.4 MiB (0%)
  125. Title                                    : Spanish-PGS
  126. Language                                 : Spanish
  127. Default                                  : No
  128. Forced                                   : No

  129. Text #4
  130. ID                                       : 8
  131. Format                                   : PGS
  132. Muxing mode                              : zlib
  133. Codec ID                                 : S_HDMV/PGS
  134. Codec ID/Info                            : Picture based subtitle format used on BDs/HD-DVDs
  135. Duration                                 : 1 h 54 min
  136. Bit rate                                 : 43.8 kb/s
  137. Count of elements                        : 3060
  138. Stream size                              : 36.0 MiB (0%)
  139. Title                                    : French-PGS
  140. Language                                 : French
  141. Default                                  : No
  142. Forced                                   : No

  143. Text #5
  144. ID                                       : 9
  145. Format                                   : PGS
  146. Muxing mode                              : zlib
  147. Codec ID                                 : S_HDMV/PGS
  148. Codec ID/Info                            : Picture based subtitle format used on BDs/HD-DVDs
  149. Duration                                 : 1 h 44 min
  150. Bit rate                                 : 179 b/s
  151. Count of elements                        : 12
  152. Stream size                              : 138 KiB (0%)
  153. Title                                    : Spanish-FORCED-PGS
  154. Language                                 : Spanish
  155. Default                                  : No
  156. Forced                                   : No

  157. Text #6
  158. ID                                       : 10
  159. Format                                   : PGS
  160. Muxing mode                              : zlib
  161. Codec ID                                 : S_HDMV/PGS
  162. Codec ID/Info                            : Picture based subtitle format used on BDs/HD-DVDs
  163. Duration                                 : 1 h 54 min
  164. Bit rate                                 : 901 b/s
  165. Count of elements                        : 70
  166. Stream size                              : 756 KiB (0%)
  167. Title                                    : French-FORCED-PGS
  168. Language                                 : French
  169. Default                                  : No
  170. Forced                                   : No

  171. Menu
  172. 00:00:00.000                             : en:Chapter 01
  173. 00:06:16.667                             : en:Chapter 02
  174. 00:11:19.470                             : en:Chapter 03
  175. 00:16:12.930                             : en:Chapter 04
  176. 00:21:28.245                             : en:Chapter 05
  177. 00:27:04.539                             : en:Chapter 06
  178. 00:33:31.884                             : en:Chapter 07
  179. 00:38:55.082                             : en:Chapter 08
  180. 00:45:53.250                             : en:Chapter 09
  181. 00:48:17.060                             : en:Chapter 10
  182. 00:56:24.339                             : en:Chapter 11
  183. 01:03:47.490                             : en:Chapter 12
  184. 01:09:16.485                             : en:Chapter 13
  185. 01:14:16.869                             : en:Chapter 14
  186. 01:19:04.614                             : en:Chapter 15
  187. 01:24:10.587                             : en:Chapter 16
  188. 01:31:51.923                             : en:Chapter 17
  189. 01:36:00.212                             : en:Chapter 18
  190. 01:40:03.247                             : en:Chapter 19
  191. 01:46:52.155                             : en:Chapter 20
复制代码

昨日奇迹 Yesterday.2019.2160p.BluRay.x265.10bit.SDR.DTS-HD.MA.TrueHD.7.1.Atmos-SWTYBLZ 27.72GB-2.png 昨日奇迹 Yesterday.2019.2160p.BluRay.x265.10bit.SDR.DTS-HD.MA.TrueHD.7.1.Atmos-SWTYBLZ 27.72GB-3.png 昨日奇迹 Yesterday.2019.2160p.BluRay.x265.10bit.SDR.DTS-HD.MA.TrueHD.7.1.Atmos-SWTYBLZ 27.72GB-4.png 昨日奇迹 Yesterday.2019.2160p.BluRay.x265.10bit.SDR.DTS-HD.MA.TrueHD.7.1.Atmos-SWTYBLZ 27.72GB-5.png 昨日奇迹 Yesterday.2019.2160p.BluRay.x265.10bit.SDR.DTS-HD.MA.TrueHD.7.1.Atmos-SWTYBLZ 27.72GB-6.png 昨日奇迹 Yesterday.2019.2160p.BluRay.x265.10bit.SDR.DTS-HD.MA.TrueHD.7.1.Atmos-SWTYBLZ 27.72GB-7.png 昨日奇迹 Yesterday.2019.2160p.BluRay.x265.10bit.SDR.DTS-HD.MA.TrueHD.7.1.Atmos-SWTYBLZ 27.72GB-8.png






开通VIP免费下载本站所有资源---点这里
新手必看:资源下载常见问题---点这里
回复

使用道具 举报

发表于 2019-9-15 19:12:49 | 显示全部楼层

我看不错噢 谢谢楼主!蓝光电影网越来越好!
开通VIP免费下载本站所有资源---点这里
新手必看:资源下载常见问题---点这里
回复 支持 反对

使用道具 举报

发表于 2019-9-15 20:44:32 | 显示全部楼层
穿越喜剧,题材到是不错,谢谢楼主!
开通VIP免费下载本站所有资源---点这里
新手必看:资源下载常见问题---点这里
回复 支持 反对

使用道具 举报

 成长值: 490

发表于 2019-9-15 21:42:56 | 显示全部楼层
谢谢分享了,,,感觉还不错哦
开通VIP免费下载本站所有资源---点这里
新手必看:资源下载常见问题---点这里
回复 支持 反对

使用道具 举报

发表于 2019-9-15 21:46:47 | 显示全部楼层
楼主发贴辛苦了,谢谢楼主分享!我觉得蓝光电影网是注册对了!
开通VIP免费下载本站所有资源---点这里
新手必看:资源下载常见问题---点这里
回复 支持 反对

使用道具 举报

发表于 2019-9-15 22:08:01 | 显示全部楼层
不错的版主
开通VIP免费下载本站所有资源---点这里
新手必看:资源下载常见问题---点这里
回复 支持 反对

使用道具 举报

发表于 2019-9-15 23:49:08 | 显示全部楼层
so cool  thank you very much
开通VIP免费下载本站所有资源---点这里
新手必看:资源下载常见问题---点这里
回复 支持 反对

使用道具 举报

发表于 2019-9-16 07:19:06 | 显示全部楼层

这东西我收了!谢谢楼主!蓝光电影网真好!
开通VIP免费下载本站所有资源---点这里
新手必看:资源下载常见问题---点这里
回复 支持 反对

使用道具 举报

发表于 2019-9-16 09:36:26 | 显示全部楼层
谢谢楼主,收藏了
开通VIP免费下载本站所有资源---点这里
新手必看:资源下载常见问题---点这里
回复 支持 反对

使用道具 举报

发表于 2019-9-16 11:17:11 | 显示全部楼层
感谢楼主精彩分享。
开通VIP免费下载本站所有资源---点这里
新手必看:资源下载常见问题---点这里
回复 支持 反对

使用道具 举报

懒得打字嘛,点击右侧快捷回复 【右侧内容,后台自定义】
您需要登录后才可以回帖 登录 | 立即加入

本版积分规则

现在加入蓝光电影网,注册一个账号

QQ| 手机版|小黑屋| 蓝光电影网 |网站地图

Copyright © 2015-2019 Comsenz Inc.  Template by 蓝光电影论坛 All Rights Reserved.

Powered by 蓝光电影网 X3.4

特别声明:本站所有资源均由网上收集而来,版权归原影音公司所有,如果侵犯了你的权益,请通知我们,我们会及时删除侵权内容.

快速回复 返回顶部 返回列表