找回密码

蓝光电影网

查看: 481|回复: 3

[REMUX.HEVC] 昨日奇迹 Yesterday.2019.2160p.BluRay.REMUX.HEVC.DTS-HD.MA.TrueHD.7.1.Atmos-FGT 57.55GB

[复制链接]

 成长值: 1810

发表于 2019-9-15 13:22:12 | 显示全部楼层 |阅读模式
昨日奇迹 Yesterday.2019.2160p.BluRay.REMUX.HEVC.DTS-HD.MA.TrueHD.7.1.Atmos-FGT 57.55GB-1.png

译  名 昨日奇迹 / All You Need is Love / 你需要的只是爱 / 昨天 / 昨日 / 缘來自昨天(港) / 靠谱歌王(台)
片  名 Yesterday
年  代 2019
产  地 英国
类  别 喜剧 / 音乐 / 奇幻
语  言 英语
上映日期 2019-05-05(翠贝卡电影节) / 2019-06-28(英国) / 2019-08-16(中国大陆)
IMDb评分  7.0/10 from 31211 users
IMDb链接  http://www.imdb.com/title/tt8079248
豆瓣评分 6.6/10 from 3863 users
豆瓣链接 https://movie.douban.com/subject/30165034/
片  长 116分钟
导  演 丹尼·博伊尔 Danny Boyle
编  剧 杰克·巴斯 Jack Barth / 理查德·柯蒂斯 Richard Curtis
主  演 希米什·帕特尔 Himesh Patel
       莉莉·詹姆斯 Lily James
       艾德·希兰 Ed Sheeran
       凯特·麦克金农 Kate McKinnon
       阿历克斯·阿诺 Alexander Arnold
       乔尔·弗莱 Joel Fry
       詹姆斯·柯登 James Corden
       卡米利·陈 Camille Chen
       拉蒙尼·莫里斯 Lamorne Morris
       索菲娅·迪·马蒂诺 Sophia Di Martino
       卡米拉·拉瑟福德 Camilla Rutherford
       艾利斯·查普尔 Ellise Chappell
       莎拉·兰卡夏尔 Sarah Lancashire
       多米尼克·科尔曼 Dominic Coleman
       玛丽安娜·斯皮瓦克 Maryana Spivak
       詹妮弗·阿尔莫 Jennifer Armour
       安娜·德·阿玛斯 Ana de Armas
       哈廷·帕特尔 Hiten Patel
       阿图尔·夏尔马 Atul Sharma
       马诺伊·阿南德 Manoj Anand
       哈里·米歇尔 Harry Michell
       珊妮·姚 Sunny Yeo
       乔希·特雷特 Josh Trett
       西蒙·P·爱德华兹 Simon P Edwards


标  签 披头士 | 音乐 | 英国 | 喜剧 | 2019 | 摇滚 | 奇幻 | 平行穿越

简  介  

  杰克(希米什·帕特尔 饰)是英国一个海滨小镇上苦苦挣扎的创作型歌手,有着好友艾莉(莉莉·詹姆斯 饰)的一直支持。在一次神秘的全球大停电中发生了一起奇怪的公交车事故,杰克醒来后发现披头士乐队根本从未存在过。他正面临着非常复杂的问题。
  1. Video
  2. ID                                       : 1
  3. Format                                   : HEVC
  4. Format/Info                              : High Efficiency Video Coding
  5. Format profile                           : Main <a href="/cdn-cgi/l/email-protection" class="__cf_email__" data-cfemail="2415146468110a15">High@L4.1</a>@High
  6. HDR format                               : SMPTE ST 2094 App 4, Version 1, HDR10+ Profile B compatible
  7. Codec ID                                 : V_MPEGH/ISO/HEVC
  8. Duration                                 : 1 h 56 min
  9. Bit rate                                 : 60.4 Mb/s
  10. Width                                    : 3 840 pixels
  11. Height                                   : 2 160 pixels
  12. Display aspect ratio                     : 16:9
  13. Frame rate mode                          : Constant
  14. Frame rate                               : 23.976 (24000/1001) FPS
  15. Color space                              : YUV
  16. Chroma subsampling                       : 4:2:0 (Type 2)
  17. Bit depth                                : 10 bits
  18. Bits/(Pixel*Frame)                       : 0.304
  19. Stream size                              : 49.0 GiB (85%)
  20. Title                                    : Yesterday.2019.2160p.BluRay.REMUX.HEVC.DTS-HD.MA.TrueHD.7.1.Atmos-FGT
  21. Language                                 : English
  22. Default                                  : No
  23. Forced                                   : No
  24. Color range                              : Limited
  25. Color primaries                          : BT.2020
  26. Transfer characteristics                 : PQ
  27. Matrix coefficients                      : BT.2020 non-constant
  28. Mastering display color primaries        : Display P3
  29. Mastering display luminance              : min: 0.0050 cd/m2, max: 1000 cd/m2
  30. Maximum Content Light Level              : 999 cd/m2
  31. Maximum Frame-Average Light Level        : 125 cd/m2

  32. Audio #1
  33. ID                                       : 2
  34. Format                                   : MLP FBA 16-ch
  35. Format/Info                              : Meridian Lossless Packing FBA with 16-channel presentation
  36. Commercial name                          : Dolby TrueHD with Dolby Atmos
  37. Codec ID                                 : A_TRUEHD
  38. Duration                                 : 1 h 56 min
  39. Bit rate mode                            : Variable
  40. Bit rate                                 : 3 272 kb/s
  41. Maximum bit rate                         : 5 664 kb/s
  42. Channel(s)                               : 8 channels
  43. Channel layout                           : L R C LFE Ls Rs Lb Rb
  44. Sampling rate                            : 48.0 kHz
  45. Frame rate                               : 1 200.000 FPS (40 SPF)
  46. Compression mode                         : Lossless
  47. Stream size                              : 2.66 GiB (5%)
  48. Title                                    : Yesterday.2019.2160p.BluRay.REMUX.HEVC.DTS-HD.MA.TrueHD.7.1.Atmos-FGT
  49. Language                                 : English
  50. Default                                  : Yes
  51. Forced                                   : No
  52. Number of dynamic objects                : 11
  53. Bed channel count                        : 1 channel
  54. Bed channel configuration                : LFE

  55. Audio #2
  56. ID                                       : 3
  57. Format                                   : DTS XLL
  58. Format/Info                              : Digital Theater Systems
  59. Commercial name                          : DTS-HD Master Audio
  60. Codec ID                                 : A_DTS
  61. Duration                                 : 1 h 56 min
  62. Bit rate mode                            : Variable
  63. Bit rate                                 : 4 024 kb/s
  64. Channel(s)                               : 8 channels
  65. Channel layout                           : C L R LFE Lb Rb Lss Rss
  66. Sampling rate                            : 48.0 kHz
  67. Frame rate                               : 93.750 FPS (512 SPF)
  68. Bit depth                                : 24 bits
  69. Compression mode                         : Lossless
  70. Stream size                              : 3.27 GiB (6%)
  71. Title                                    : Yesterday.2019.2160p.BluRay.REMUX.HEVC.DTS-HD.MA.TrueHD.7.1.Atmos-FGT
  72. Language                                 : English
  73. Default                                  : No
  74. Forced                                   : No

  75. Audio #3
  76. ID                                       : 4
  77. Format                                   : AC-3
  78. Format/Info                              : Audio Coding 3
  79. Commercial name                          : Dolby Digital
  80. Codec ID                                 : A_AC3
  81. Duration                                 : 1 h 56 min
  82. Bit rate mode                            : Constant
  83. Bit rate                                 : 448 kb/s
  84. Channel(s)                               : 6 channels
  85. Channel layout                           : L R C LFE Ls Rs
  86. Sampling rate                            : 48.0 kHz
  87. Frame rate                               : 31.250 FPS (1536 SPF)
  88. Bit depth                                : 16 bits
  89. Compression mode                         : Lossy
  90. Stream size                              : 372 MiB (1%)
  91. Title                                    : Yesterday.2019.2160p.BluRay.REMUX.HEVC.DTS-HD.MA.TrueHD.7.1.Atmos-FGT
  92. Language                                 : English
  93. Service kind                             : Complete Main
  94. Default                                  : No
  95. Forced                                   : No

  96. Audio #4
  97. ID                                       : 5
  98. Format                                   : E-AC-3
  99. Format/Info                              : Enhanced AC-3
  100. Commercial name                          : Dolby Digital Plus
  101. Format profile                           : Blu-ray Disc
  102. Codec ID                                 : A_EAC3
  103. Duration                                 : 1 h 56 min
  104. Bit rate mode                            : Constant
  105. Bit rate                                 : 768 kb/s
  106. Channel(s)                               : 8 channels
  107. Channel layout                           : L R C LFE Ls Rs Lb Rb
  108. Sampling rate                            : 48.0 kHz
  109. Frame rate                               : 31.250 FPS (1536 SPF)
  110. Compression mode                         : Lossy
  111. Stream size                              : 639 MiB (1%)
  112. Title                                    : Yesterday.2019.2160p.BluRay.REMUX.HEVC.DTS-HD.MA.TrueHD.7.1.Atmos-FGT
  113. Language                                 : Spanish
  114. Service kind                             : Complete Main
  115. Default                                  : No
  116. Forced                                   : No

  117. Audio #5
  118. ID                                       : 6
  119. Format                                   : AC-3
  120. Format/Info                              : Audio Coding 3
  121. Commercial name                          : Dolby Digital
  122. Codec ID                                 : A_AC3
  123. Duration                                 : 1 h 56 min
  124. Bit rate mode                            : Constant
  125. Bit rate                                 : 448 kb/s
  126. Channel(s)                               : 6 channels
  127. Channel layout                           : L R C LFE Ls Rs
  128. Sampling rate                            : 48.0 kHz
  129. Frame rate                               : 31.250 FPS (1536 SPF)
  130. Bit depth                                : 16 bits
  131. Compression mode                         : Lossy
  132. Stream size                              : 372 MiB (1%)
  133. Title                                    : Yesterday.2019.2160p.BluRay.REMUX.HEVC.DTS-HD.MA.TrueHD.7.1.Atmos-FGT
  134. Language                                 : Spanish
  135. Service kind                             : Complete Main
  136. Default                                  : No
  137. Forced                                   : No

  138. Audio #6
  139. ID                                       : 7
  140. Format                                   : E-AC-3
  141. Format/Info                              : Enhanced AC-3
  142. Commercial name                          : Dolby Digital Plus
  143. Format profile                           : Blu-ray Disc
  144. Codec ID                                 : A_EAC3
  145. Duration                                 : 1 h 56 min
  146. Bit rate mode                            : Constant
  147. Bit rate                                 : 768 kb/s
  148. Channel(s)                               : 8 channels
  149. Channel layout                           : L R C LFE Ls Rs Lb Rb
  150. Sampling rate                            : 48.0 kHz
  151. Frame rate                               : 31.250 FPS (1536 SPF)
  152. Compression mode                         : Lossy
  153. Stream size                              : 639 MiB (1%)
  154. Title                                    : Yesterday.2019.2160p.BluRay.REMUX.HEVC.DTS-HD.MA.TrueHD.7.1.Atmos-FGT
  155. Language                                 : French
  156. Service kind                             : Complete Main
  157. Default                                  : No
  158. Forced                                   : No

  159. Audio #7
  160. ID                                       : 8
  161. Format                                   : AC-3
  162. Format/Info                              : Audio Coding 3
  163. Commercial name                          : Dolby Digital
  164. Codec ID                                 : A_AC3
  165. Duration                                 : 1 h 56 min
  166. Bit rate mode                            : Constant
  167. Bit rate                                 : 448 kb/s
  168. Channel(s)                               : 6 channels
  169. Channel layout                           : L R C LFE Ls Rs
  170. Sampling rate                            : 48.0 kHz
  171. Frame rate                               : 31.250 FPS (1536 SPF)
  172. Bit depth                                : 16 bits
  173. Compression mode                         : Lossy
  174. Stream size                              : 372 MiB (1%)
  175. Title                                    : Yesterday.2019.2160p.BluRay.REMUX.HEVC.DTS-HD.MA.TrueHD.7.1.Atmos-FGT
  176. Language                                 : French
  177. Service kind                             : Complete Main
  178. Default                                  : No
  179. Forced                                   : No

  180. Audio #8
  181. ID                                       : 9
  182. Format                                   : AC-3
  183. Format/Info                              : Audio Coding 3
  184. Commercial name                          : Dolby Digital
  185. Codec ID                                 : A_AC3
  186. Duration                                 : 1 h 56 min
  187. Bit rate mode                            : Constant
  188. Bit rate                                 : 192 kb/s
  189. Channel(s)                               : 2 channels
  190. Channel layout                           : L R
  191. Sampling rate                            : 48.0 kHz
  192. Frame rate                               : 31.250 FPS (1536 SPF)
  193. Bit depth                                : 16 bits
  194. Compression mode                         : Lossy
  195. Stream size                              : 160 MiB (0%)
  196. Title                                    : Yesterday.2019.2160p.BluRay.REMUX.HEVC.DTS-HD.MA.TrueHD.7.1.Atmos-FGT
  197. Language                                 : English
  198. Service kind                             : Complete Main
  199. Default                                  : No
  200. Forced                                   : No

  201. Text #1
  202. ID                                       : 10
  203. Format                                   : UTF-8
  204. Codec ID                                 : S_TEXT/UTF8
  205. Codec ID/Info                            : UTF-8 Plain Text
  206. Duration                                 : 1 h 55 min
  207. Bit rate                                 : 79 b/s
  208. Count of elements                        : 2246
  209. Stream size                              : 67.3 KiB (0%)
  210. Title                                    : English-SRT
  211. Language                                 : English
  212. Default                                  : Yes
  213. Forced                                   : No

  214. Text #2
  215. ID                                       : 11
  216. Format                                   : PGS
  217. Muxing mode                              : zlib
  218. Codec ID                                 : S_HDMV/PGS
  219. Codec ID/Info                            : Picture based subtitle format used on BDs/HD-DVDs
  220. Duration                                 : 1 h 54 min
  221. Bit rate                                 : 59.0 kb/s
  222. Count of elements                        : 4250
  223. Stream size                              : 48.5 MiB (0%)
  224. Title                                    : English-PGS
  225. Language                                 : English
  226. Default                                  : No
  227. Forced                                   : No

  228. Text #3
  229. ID                                       : 12
  230. Format                                   : PGS
  231. Muxing mode                              : zlib
  232. Codec ID                                 : S_HDMV/PGS
  233. Codec ID/Info                            : Picture based subtitle format used on BDs/HD-DVDs
  234. Duration                                 : 1 h 54 min
  235. Bit rate                                 : 40.7 kb/s
  236. Count of elements                        : 3065
  237. Stream size                              : 33.4 MiB (0%)
  238. Title                                    : Spanish-PGS
  239. Language                                 : Spanish
  240. Default                                  : No
  241. Forced                                   : No

  242. Text #4
  243. ID                                       : 13
  244. Format                                   : PGS
  245. Muxing mode                              : zlib
  246. Codec ID                                 : S_HDMV/PGS
  247. Codec ID/Info                            : Picture based subtitle format used on BDs/HD-DVDs
  248. Duration                                 : 1 h 54 min
  249. Bit rate                                 : 43.8 kb/s
  250. Count of elements                        : 3060
  251. Stream size                              : 36.0 MiB (0%)
  252. Title                                    : French-PGS
  253. Language                                 : French
  254. Default                                  : No
  255. Forced                                   : No

  256. Text #5
  257. ID                                       : 14
  258. Format                                   : PGS
  259. Muxing mode                              : zlib
  260. Codec ID                                 : S_HDMV/PGS
  261. Codec ID/Info                            : Picture based subtitle format used on BDs/HD-DVDs
  262. Duration                                 : 1 h 44 min
  263. Bit rate                                 : 179 b/s
  264. Count of elements                        : 12
  265. Stream size                              : 138 KiB (0%)
  266. Title                                    : Spanish-FORCED-PGS
  267. Language                                 : Spanish
  268. Default                                  : No
  269. Forced                                   : No

  270. Text #6
  271. ID                                       : 15
  272. Format                                   : PGS
  273. Muxing mode                              : zlib
  274. Codec ID                                 : S_HDMV/PGS
  275. Codec ID/Info                            : Picture based subtitle format used on BDs/HD-DVDs
  276. Duration                                 : 1 h 54 min
  277. Bit rate                                 : 901 b/s
  278. Count of elements                        : 70
  279. Stream size                              : 756 KiB (0%)
  280. Title                                    : French-FORCED-PGS
  281. Language                                 : French
  282. Default                                  : No
  283. Forced                                   : No

  284. Menu
  285. 00:00:00.000                             : en:Chapter 01
  286. 00:06:16.667                             : en:Chapter 02
  287. 00:11:19.470                             : en:Chapter 03
  288. 00:16:12.930                             : en:Chapter 04
  289. 00:21:28.245                             : en:Chapter 05
  290. 00:27:04.539                             : en:Chapter 06
  291. 00:33:31.884                             : en:Chapter 07
  292. 00:38:55.082                             : en:Chapter 08
  293. 00:45:53.250                             : en:Chapter 09
  294. 00:48:17.060                             : en:Chapter 10
  295. 00:56:24.339                             : en:Chapter 11
  296. 01:03:47.490                             : en:Chapter 12
  297. 01:09:16.485                             : en:Chapter 13
  298. 01:14:16.869                             : en:Chapter 14
  299. 01:19:04.614                             : en:Chapter 15
  300. 01:24:10.587                             : en:Chapter 16
  301. 01:31:51.923                             : en:Chapter 17
  302. 01:36:00.212                             : en:Chapter 18
  303. 01:40:03.247                             : en:Chapter 19
  304. 01:46:52.155                             : en:Chapter 20
复制代码

昨日奇迹 Yesterday.2019.2160p.BluRay.REMUX.HEVC.DTS-HD.MA.TrueHD.7.1.Atmos-FGT 57.55GB-2.png 昨日奇迹 Yesterday.2019.2160p.BluRay.REMUX.HEVC.DTS-HD.MA.TrueHD.7.1.Atmos-FGT 57.55GB-3.png 昨日奇迹 Yesterday.2019.2160p.BluRay.REMUX.HEVC.DTS-HD.MA.TrueHD.7.1.Atmos-FGT 57.55GB-4.png






开通VIP免费下载本站所有资源---点这里
新手必看:资源下载常见问题---点这里
回复

使用道具 举报

发表于 2019-9-16 09:18:01 | 显示全部楼层
谢谢发片。
开通VIP免费下载本站所有资源---点这里
新手必看:资源下载常见问题---点这里
回复

使用道具 举报

 成长值: 1060

发表于 2019-9-17 06:37:51 | 显示全部楼层

楼主太厉害了!楼主,电影应该很好看我觉得蓝光电影网真是个好地方!
开通VIP免费下载本站所有资源---点这里
新手必看:资源下载常见问题---点这里
回复 支持 反对

使用道具 举报

发表于 2019-9-20 21:55:43 | 显示全部楼层
楼主发贴辛苦了,谢谢楼主分享!我觉得蓝光电影网是注册对了!
开通VIP免费下载本站所有资源---点这里
新手必看:资源下载常见问题---点这里
回复 支持 反对

使用道具 举报

懒得打字嘛,点击右侧快捷回复 【右侧内容,后台自定义】
您需要登录后才可以回帖 登录 | 立即加入

本版积分规则

现在加入蓝光电影网,注册一个账号

QQ| 手机版|小黑屋| 蓝光电影网 |网站地图

Copyright © 2015-2019 Comsenz Inc.  Template by 蓝光电影论坛 All Rights Reserved.

Powered by 蓝光电影网 X3.4

特别声明:本站所有资源均由网上收集而来,版权归原影音公司所有,如果侵犯了你的权益,请通知我们,我们会及时删除侵权内容.

快速回复 返回顶部 返回列表