找回密码

蓝光电影网

查看: 162|回复: 5

[惊悚] 夜幕猎人 Nomis.2018.1080p.BluRay.x264.DTS-FGT 6.71GB

[复制链接]

 成长值: 1420

发表于 2019-9-12 13:11:44 | 显示全部楼层 |阅读模式
夜幕猎人 Nomis.2018.1080p.BluRay.x264.DTS-FGT 6.71GB-1.png

译  名 夜幕猎人 / Nomis / 诺米斯
片  名 Night Hunter
年  代 2018
产  地 美国
类  别 惊悚
语  言 英语
上映日期 2018-09-28(洛杉矶电影节) / 2019-09-06(美国)
IMDb评分  6.1/10 from 802 users
IMDb链接  http://www.imdb.com/title/tt6533240
豆瓣评分 0/10 from 0 users
豆瓣链接 https://movie.douban.com/subject/26972266/
片  长 98分钟
导  演 大卫·雷蒙德 David Raymond
编  剧 大卫·雷蒙德 David Raymond
主  演 本·金斯利 Ben Kingsley
       亨利·卡维尔 Henry Cavill
       亚历珊德拉·达达里奥 Alexandra Daddario
       斯坦利·图齐 Stanley Tucci
       内森·菲利安 Nathan Fillion
       敏卡·凯利 Minka Kelly
       布莱登·佛雷切 Brendan Fletcher
       伊莲娜·琼斯 Eliana Jones
       Mpho Koaho
       Kristen Harris
       Lorraine James


标  签 亨利·卡维尔 | 犯罪 | 惊悚 | 美国 | HenryCavill | 2018 | 电影 | 亚历珊德拉·达达里奥

简  介  

  本·金斯利、亨利·卡维尔、亚历珊德拉·达达里奥加盟心理惊悚片[诺米斯](Nomis,暂译)。该片由大卫·雷蒙德自编自导,故事围绕一名美国警察追捕一名网上罪犯展开,随着案件的逐渐深入,一切都朝着无法控制的方向发展。2月底加拿大开机。
  1. Video
  2. ID                                       : 1
  3. Format                                   : AVC
  4. Format/Info                              : Advanced Video Codec
  5. Format profile                           : <a href="/cdn-cgi/l/email-protection" class="__cf_email__" data-cfemail="89c1e0eee1c9c5bda7b8">High@L4.1</a>
  6. Format settings                          : CABAC / 5 Ref Frames
  7. Format settings, CABAC                   : Yes
  8. Format settings, Reference frames        : 5 frames
  9. Codec ID                                 : V_MPEG4/ISO/AVC
  10. Duration                                 : 1 h 38 min
  11. Bit rate                                 : 8 198 kb/s
  12. Width                                    : 1 920 pixels
  13. Height                                   : 808 pixels
  14. Display aspect ratio                     : 2.40:1
  15. Frame rate mode                          : Constant
  16. Frame rate                               : 23.976 (24000/1001) FPS
  17. Color space                              : YUV
  18. Chroma subsampling                       : 4:2:0
  19. Bit depth                                : 8 bits
  20. Scan type                                : Progressive
  21. Bits/(Pixel*Frame)                       : 0.220
  22. Stream size                              : 5.67 GiB (84%)
  23. Title                                    : Nomis.2018.1080p.BluRay.x264.DTS-FGT
  24. Writing library                          : x264 core 157 r2969 d4099dd
  25. Encoding settings                        : cabac=1 / ref=5 / deblock=1:0:0 / analyse=0x3:0x113 / me=umh / subme=8 / psy=1 / psy_rd=1.00:0.00 / mixed_ref=1 / me_range=16 / chroma_me=1 / trellis=2 / 8x8dct=1 / cqm=0 / deadzone=21,11 / fast_pskip=1 / chroma_qp_offset=-2 / threads=16 / lookahead_threads=2 / sliced_threads=0 / nr=0 / decimate=1 / interlaced=0 / bluray_compat=0 / constrained_intra=0 / bframes=3 / b_pyramid=2 / b_adapt=2 / b_bias=0 / direct=3 / weightb=1 / open_gop=0 / weightp=2 / keyint=240 / keyint_min=23 / scenecut=40 / intra_refresh=0 / rc_lookahead=50 / rc=2pass / mbtree=1 / bitrate=8198 / ratetol=1.0 / qcomp=0.60 / qpmin=0 / qpmax=69 / qpstep=4 / cplxblur=20.0 / qblur=0.5 / ip_ratio=1.40 / aq=1:1.00
  26. Language                                 : English
  27. Default                                  : Yes
  28. Forced                                   : Yes

  29. Audio
  30. ID                                       : 2
  31. Format                                   : DTS
  32. Format/Info                              : Digital Theater Systems
  33. Codec ID                                 : A_DTS
  34. Duration                                 : 1 h 38 min
  35. Bit rate mode                            : Constant
  36. Bit rate                                 : 1 509 kb/s
  37. Channel(s)                               : 6 channels
  38. Channel layout                           : C L R Ls Rs LFE
  39. Sampling rate                            : 48.0 kHz
  40. Frame rate                               : 93.750 FPS (512 SPF)
  41. Bit depth                                : 24 bits
  42. Compression mode                         : Lossy
  43. Stream size                              : 1.04 GiB (16%)
  44. Title                                    : Nomis.2018.1080p.BluRay.x264.DTS-FGT
  45. Language                                 : English
  46. Default                                  : Yes
  47. Forced                                   : No

  48. Text
  49. ID                                       : 3
  50. Format                                   : UTF-8
  51. Codec ID                                 : S_TEXT/UTF8
  52. Codec ID/Info                            : UTF-8 Plain Text
  53. Duration                                 : 1 h 33 min
  54. Bit rate                                 : 48 b/s
  55. Count of elements                        : 1279
  56. Stream size                              : 32.9 KiB (0%)
  57. Language                                 : English
  58. Default                                  : Yes
  59. Forced                                   : No

  60. Menu
  61. 00:00:00.000                             : en:Chapter 01
  62. 00:13:20.299                             : en:Chapter 02
  63. 00:25:10.884                             : en:Chapter 03
  64. 00:40:01.107                             : en:Chapter 04
  65. 00:53:13.315                             : en:Chapter 05
  66. 01:08:14.507                             : en:Chapter 06
  67. 01:23:00.141                             : en:Chapter 07
  68. 01:33:35.651                             : en:Chapter 08
复制代码

夜幕猎人 Nomis.2018.1080p.BluRay.x264.DTS-FGT 6.71GB-2.png 夜幕猎人 Nomis.2018.1080p.BluRay.x264.DTS-FGT 6.71GB-3.png 夜幕猎人 Nomis.2018.1080p.BluRay.x264.DTS-FGT 6.71GB-4.png






开通VIP免费下载本站所有资源---点这里
新手必看:资源下载常见问题---点这里
回复

使用道具 举报

发表于 2019-9-12 18:26:41 | 显示全部楼层

这东西我收了!谢谢楼主!蓝光电影网真好!
开通VIP免费下载本站所有资源---点这里
新手必看:资源下载常见问题---点这里
回复 支持 反对

使用道具 举报

发表于 2019-9-12 20:11:12 | 显示全部楼层
有时间下载下来看看
开通VIP免费下载本站所有资源---点这里
新手必看:资源下载常见问题---点这里
回复 支持 反对

使用道具 举报

发表于 2019-9-13 00:27:32 | 显示全部楼层

我看不错噢 谢谢楼主!蓝光电影网越来越好!
开通VIP免费下载本站所有资源---点这里
新手必看:资源下载常见问题---点这里
回复 支持 反对

使用道具 举报

发表于 2019-9-13 11:09:41 | 显示全部楼层
夜幕猎人,谢谢分享!
开通VIP免费下载本站所有资源---点这里
新手必看:资源下载常见问题---点这里
回复 支持 反对

使用道具 举报

发表于 7 天前 | 显示全部楼层
看来又是一部费力不讨好的作者电影
开通VIP免费下载本站所有资源---点这里
新手必看:资源下载常见问题---点这里
回复 支持 反对

使用道具 举报

懒得打字嘛,点击右侧快捷回复 【右侧内容,后台自定义】
您需要登录后才可以回帖 登录 | 立即加入

本版积分规则

现在加入蓝光电影网,注册一个账号

QQ| 手机版|小黑屋| 蓝光电影网 |网站地图

Copyright © 2015-2019 Comsenz Inc.  Template by 蓝光电影网 All Rights Reserved.

Powered by 蓝光电影网 X3.4

特别声明:本站所有资源均由网上收集而来,版权归原影音公司所有,如果侵犯了你的权益,请通知我们,我们会及时删除侵权内容.

快速回复 返回顶部 返回列表