找回密码

蓝光电影网

查看: 57|回复: 1

[喜剧] 那种下沉的感觉 That.Sinking.Feeling.1979.1080p.BluRay.x264-PHOBOS 7.65GB

[复制链接]

 成长值: 1420

发表于 2019-9-11 22:35:30 | 显示全部楼层 |阅读模式
那种下沉的感觉 That.Sinking.Feeling.1979.1080p.BluRay.x264-PHOBOS 7.65GB-1.png

译  名 那种下沉的感觉
片  名 That Sinking Feeling
年  代 1980
产  地 英国
类  别 喜剧
语  言 英语
上映日期 1984-02-15
IMDb评分  6.8/10 from 828 users
IMDb链接  http://www.imdb.com/title/tt0080012
豆瓣评分 0/10 from 0 users
豆瓣链接 https://movie.douban.com/subject/2969798/
片  长 93 分钟
导  演 Bill Forsyth
编  剧 Bill Forsyth
主  演 Tom Mannion
       Eddie Burt
       Richard Demarco


标  签 英国 | Glasgow | 1980s | gay | Bill·Forsyth | Bill_Forsyth | 英国电影 | 比尔·福塞斯

简  介  

  Ronnie, Wal, Andy and Vic are four bored, unemployed teens in dreary, rainy Glasgow. Ronnie comes up with a great idea. He has noticed that stainless steel sinks are worth a lot of money and comes up with a complicated scheme: to steal sinks from a warehouse dressed as girls and using a stop-motion-potion.
  Written by Mattias Thuresson {High@L4.1}
  1. Video
  2. ID                                       : 1
  3. Format                                   : AVC
  4. Format/Info                              : Advanced Video Codec
  5. Format profile                           : <a href="/cdn-cgi/l/email-protection" class="__cf_email__" data-cfemail="165e7f717e565a223827">High@L4.1</a>
  6. Format settings                          : CABAC / 5 Ref Frames
  7. Format settings, CABAC                   : Yes
  8. Format settings, Reference frames        : 5 frames
  9. Codec ID                                 : V_MPEG4/ISO/AVC
  10. Duration                                 : 1 h 30 min
  11. Bit rate                                 : 11.4 Mb/s
  12. Width                                    : 1 440 pixels
  13. Height                                   : 1 080 pixels
  14. Display aspect ratio                     : 4:3
  15. Frame rate mode                          : Constant
  16. Frame rate                               : 24.000 FPS
  17. Color space                              : YUV
  18. Chroma subsampling                       : 4:2:0
  19. Bit depth                                : 8 bits
  20. Scan type                                : Progressive
  21. Bits/(Pixel*Frame)                       : 0.304
  22. Stream size                              : 7.18 GiB (94%)
  23. Writing library                          : x264 core 146 r2538M 121396c
  24. Encoding settings                        : cabac=1 / ref=5 / deblock=1:0:0 / analyse=0x3:0x133 / me=umh / subme=10 / psy=1 / psy_rd=1.00:0.00 / mixed_ref=1 / me_range=24 / chroma_me=1 / trellis=2 / 8x8dct=1 / cqm=0 / deadzone=21,11 / fast_pskip=1 / chroma_qp_offset=-2 / threads=6 / lookahead_threads=1 / sliced_threads=0 / nr=0 / decimate=1 / interlaced=0 / bluray_compat=0 / constrained_intra=0 / bframes=8 / b_pyramid=2 / b_adapt=2 / b_bias=0 / direct=3 / weightb=1 / open_gop=0 / weightp=2 / keyint=250 / keyint_min=24 / scenecut=40 / intra_refresh=0 / rc_lookahead=60 / rc=2pass / mbtree=1 / bitrate=11357 / ratetol=1.0 / qcomp=0.60 / qpmin=0 / qpmax=69 / qpstep=4 / cplxblur=20.0 / qblur=0.5 / ip_ratio=1.40 / aq=1:1.00
  25. Default                                  : Yes
  26. Forced                                   : No

  27. Audio
  28. ID                                       : 2
  29. Format                                   : FLAC
  30. Format/Info                              : Free Lossless Audio Codec
  31. Codec ID                                 : A_FLAC
  32. Duration                                 : 1 h 30 min
  33. Bit rate mode                            : Variable
  34. Bit rate                                 : 750 kb/s
  35. Channel(s)                               : 1 channel
  36. Channel layout                           : C
  37. Sampling rate                            : 48.0 kHz
  38. Frame rate                               : 11.719 FPS (4096 SPF)
  39. Bit depth                                : 24 bits
  40. Compression mode                         : Lossless
  41. Stream size                              : 485 MiB (6%)
  42. Writing library                          : libFLAC 1.2.1 (UTC 2007-09-17)
  43. Language                                 : English
  44. Default                                  : Yes
  45. Forced                                   : No

  46. Text #1
  47. ID                                       : 3
  48. Format                                   : UTF-8
  49. Codec ID                                 : S_TEXT/UTF8
  50. Codec ID/Info                            : UTF-8 Plain Text
  51. Duration                                 : 1 h 26 min
  52. Bit rate                                 : 42 b/s
  53. Count of elements                        : 731
  54. Stream size                              : 26.8 KiB (0%)
  55. Language                                 : English
  56. Default                                  : No
  57. Forced                                   : No

  58. Text #2
  59. ID                                       : 4
  60. Format                                   : UTF-8
  61. Codec ID                                 : S_TEXT/UTF8
  62. Codec ID/Info                            : UTF-8 Plain Text
  63. Duration                                 : 1 h 27 min
  64. Bit rate                                 : 43 b/s
  65. Count of elements                        : 791
  66. Stream size                              : 27.9 KiB (0%)
  67. Title                                    : SDH
  68. Language                                 : English
  69. Default                                  : No
  70. Forced                                   : No

  71. Menu
  72. 00:00:00.000                             : en:00:00:00.000
  73. 00:10:00.167                             : en:00:10:00.167
  74. 00:15:58.792                             : en:00:15:58.792
  75. 00:26:17.042                             : en:00:26:17.042
  76. 00:33:23.667                             : en:00:33:23.667
  77. 00:37:11.083                             : en:00:37:11.083
  78. 00:45:47.958                             : en:00:45:47.958
  79. 00:51:11.083                             : en:00:51:11.083
  80. 01:00:16.000                             : en:01:00:16.000
  81. 01:11:30.792                             : en:01:11:30.792
  82. 01:17:07.042                             : en:01:17:07.042
  83. 01:22:15.125                             : en:01:22:15.125
复制代码

那种下沉的感觉 That.Sinking.Feeling.1979.1080p.BluRay.x264-PHOBOS 7.65GB-2.png 那种下沉的感觉 That.Sinking.Feeling.1979.1080p.BluRay.x264-PHOBOS 7.65GB-3.png 那种下沉的感觉 That.Sinking.Feeling.1979.1080p.BluRay.x264-PHOBOS 7.65GB-4.png






开通VIP免费下载本站所有资源---点这里
新手必看:资源下载常见问题---点这里
回复

使用道具 举报

发表于 2019-9-12 09:29:19 | 显示全部楼层

楼主太厉害了!楼主,电影应该很好看我觉得蓝光电影网真是个好地方!
开通VIP免费下载本站所有资源---点这里
新手必看:资源下载常见问题---点这里
回复 支持 反对

使用道具 举报

懒得打字嘛,点击右侧快捷回复 【右侧内容,后台自定义】
您需要登录后才可以回帖 登录 | 立即加入

本版积分规则

现在加入蓝光电影网,注册一个账号

QQ| 手机版|小黑屋| 蓝光电影网 |网站地图

Copyright © 2015-2019 Comsenz Inc.  Template by 蓝光电影网 All Rights Reserved.

Powered by 蓝光电影网 X3.4

特别声明:本站所有资源均由网上收集而来,版权归原影音公司所有,如果侵犯了你的权益,请通知我们,我们会及时删除侵权内容.

快速回复 返回顶部 返回列表