找回密码

蓝光电影网

查看: 86|回复: 1

[剧情] 内陆 Terraferma.2011.1080p.BluRay.x264-PHOBOS 7.94GB

[复制链接]

 成长值: 1420

发表于 2019-9-11 22:34:32 | 显示全部楼层 |阅读模式
内陆 Terraferma.2011.1080p.BluRay.x264-PHOBOS 7.94GB-1.png

译  名 内陆 / Mainland / 内地 / 大陆
片  名 Terraferma
年  代 2011
产  地 意大利 / 法国
类  别 剧情
语  言 意大利语 / 西西里语 / 阿姆哈拉语
上映日期 2011-09-07(意大利)
IMDb评分  6.8/10 from 2815 users
IMDb链接  http://www.imdb.com/title/tt1641410
豆瓣评分 7.1/10 from 628 users
豆瓣链接 https://movie.douban.com/subject/5153008/
片  长 88分钟
导  演 艾曼纽尔·克里亚勒斯 Emanuele Crialese
编  剧 艾曼纽尔·克里亚勒斯 Emanuele Crialese / Vittorio Moroni
主  演 唐娜提拉·芬诺恰罗 Donatella Finocchiaro
       贝佩·费奥雷罗 Beppe Fiorello
       Mimmo Cuticchio
       Martina Codecasa
       Filippo Pucillo
       蒂兹亚娜·罗达托 Tiziana Lodato
       克劳迪奥·桑塔玛利亚 Claudio Santamaria
       Filippo Scarafia


标  签 意大利 | 意大利电影 | 剧情 | 人性 | 2011 | 法国 | 第68届威尼斯电影节 | EmanueleCrialese

简  介  

  故事发生在风景如诗如画的意大利海岛之上,埃内斯托(Mimmo Cuticchio 饰)一家人就生活在这里。早年间,埃斯内托的儿子在一次出海后就再也没有回来过,留下年幼的儿子菲利普(Filippo Pucillo 饰)和母亲朱丽叶塔(唐娜提拉·芬诺恰罗 Donatella Finocchiaro 饰)过着相依为命的生活。所幸得到了埃内斯托和叔叔尼诺(贝佩·费奥雷罗 Beppe Fiorello 饰)的帮助,母子两人才能够拥有稳定的生活。
  在失去了丈夫之后,朱丽叶塔终日生活在孤独和寂寞之中,她觉得这个小岛正在渐渐的扼杀的她的灵魂,唯一幸免的方式就是离开这里。某天,一群在落难的游客漂流到了这座海岛之上,打破了笼罩在这里的一贯的宁静。

获奖情况  

  第68届威尼斯电影节(2011)
  金狮奖(提名) 艾曼纽尔·克里亚勒斯
  评审团特别奖 艾曼纽尔·克里亚勒斯
  联合国儿童基金会奖 艾曼纽尔·克里亚勒斯
  帕西内蒂奖 最佳电影 艾曼纽尔·克里亚勒斯

  第56届意大利大卫奖(2012)
  最佳影片(提名) Giovanni Stabilini / Riccardo Tozzi / 艾曼纽尔·克里亚勒斯 / Marco Chimenz
  最佳导演(提名) 艾曼纽尔·克里亚勒斯
  最佳女主角(提名) 唐娜提拉·芬诺恰罗
  1. Video
  2. ID                                       : 1
  3. Format                                   : AVC
  4. Format/Info                              : Advanced Video Codec
  5. Format profile                           : <a href="/cdn-cgi/l/email-protection" class="__cf_email__" data-cfemail="f9b1909e91b9b5cdd7c8">High@L4.1</a>
  6. Format settings                          : CABAC / 5 Ref Frames
  7. Format settings, CABAC                   : Yes
  8. Format settings, Reference frames        : 5 frames
  9. Codec ID                                 : V_MPEG4/ISO/AVC
  10. Duration                                 : 1 h 33 min
  11. Bit rate                                 : 10.7 Mb/s
  12. Width                                    : 1 920 pixels
  13. Height                                   : 816 pixels
  14. Display aspect ratio                     : 2.35:1
  15. Frame rate mode                          : Constant
  16. Frame rate                               : 23.976 (24000/1001) FPS
  17. Color space                              : YUV
  18. Chroma subsampling                       : 4:2:0
  19. Bit depth                                : 8 bits
  20. Scan type                                : Progressive
  21. Bits/(Pixel*Frame)                       : 0.284
  22. Stream size                              : 6.96 GiB (88%)
  23. Writing library                          : x264 core 144 r2525 40bb568
  24. Encoding settings                        : cabac=1 / ref=5 / deblock=1:0:0 / analyse=0x3:0x113 / me=umh / subme=8 / psy=1 / psy_rd=1.00:0.00 / mixed_ref=1 / me_range=16 / chroma_me=1 / trellis=1 / 8x8dct=1 / cqm=0 / deadzone=21,11 / fast_pskip=0 / chroma_qp_offset=-2 / threads=12 / lookahead_threads=2 / sliced_threads=0 / nr=0 / decimate=1 / interlaced=0 / bluray_compat=0 / constrained_intra=0 / bframes=3 / b_pyramid=2 / b_adapt=2 / b_bias=0 / direct=1 / weightb=1 / open_gop=0 / weightp=2 / keyint=230 / keyint_min=23 / scenecut=40 / intra_refresh=0 / rc_lookahead=50 / rc=2pass / mbtree=1 / bitrate=10675 / ratetol=1.0 / qcomp=0.60 / qpmin=0 / qpmax=69 / qpstep=4 / cplxblur=20.0 / qblur=0.5 / ip_ratio=1.40 / aq=1:1.00
  25. Language                                 : English
  26. Default                                  : Yes
  27. Forced                                   : No
  28. Color range                              : Limited
  29. Matrix coefficients                      : BT.709

  30. Audio
  31. ID                                       : 3
  32. Format                                   : DTS
  33. Format/Info                              : Digital Theater Systems
  34. Codec ID                                 : A_DTS
  35. Duration                                 : 1 h 33 min
  36. Bit rate mode                            : Constant
  37. Bit rate                                 : 1 509 kb/s
  38. Channel(s)                               : 6 channels
  39. Channel layout                           : C L R Ls Rs LFE
  40. Sampling rate                            : 48.0 kHz
  41. Frame rate                               : 93.750 FPS (512 SPF)
  42. Bit depth                                : 24 bits
  43. Compression mode                         : Lossy
  44. Stream size                              : 1 008 MiB (12%)
  45. Language                                 : Italian
  46. Default                                  : Yes
  47. Forced                                   : No

  48. Text
  49. ID                                       : 2
  50. Format                                   : UTF-8
  51. Codec ID                                 : S_TEXT/UTF8
  52. Codec ID/Info                            : UTF-8 Plain Text
  53. Duration                                 : 1 h 22 min
  54. Bit rate                                 : 28 b/s
  55. Count of elements                        : 671
  56. Stream size                              : 17.2 KiB (0%)
  57. Language                                 : English
  58. Default                                  : Yes
  59. Forced                                   : Yes

  60. Menu
  61. 00:00:00.000                             : en:00:00:00.000
  62. 00:05:13.772                             : en:00:05:13.772
  63. 00:11:49.500                             : en:00:11:49.500
  64. 00:18:07.878                             : en:00:18:07.878
  65. 00:22:44.989                             : en:00:22:44.989
  66. 00:30:11.893                             : en:00:30:11.893
  67. 00:36:16.716                             : en:00:36:16.716
  68. 00:41:48.965                             : en:00:41:48.965
  69. 00:47:20.463                             : en:00:47:20.463
  70. 00:55:29.076                             : en:00:55:29.076
  71. 01:01:58.798                             : en:01:01:58.798
  72. 01:08:10.670                             : en:01:08:10.670
  73. 01:13:07.633                             : en:01:13:07.633
  74. 01:17:58.883                             : en:01:17:58.883
  75. 01:22:27.651                             : en:01:22:27.651
  76. 01:28:45.320                             : en:01:28:45.320
复制代码

内陆 Terraferma.2011.1080p.BluRay.x264-PHOBOS 7.94GB-2.png 内陆 Terraferma.2011.1080p.BluRay.x264-PHOBOS 7.94GB-3.png 内陆 Terraferma.2011.1080p.BluRay.x264-PHOBOS 7.94GB-4.png






开通VIP免费下载本站所有资源---点这里
新手必看:资源下载常见问题---点这里
回复

使用道具 举报

发表于 2019-9-12 11:12:21 | 显示全部楼层

楼主太厉害了!楼主,电影应该很好看我觉得蓝光电影网真是个好地方!
开通VIP免费下载本站所有资源---点这里
新手必看:资源下载常见问题---点这里
回复 支持 反对

使用道具 举报

懒得打字嘛,点击右侧快捷回复 【右侧内容,后台自定义】
您需要登录后才可以回帖 登录 | 立即加入

本版积分规则

现在加入蓝光电影网,注册一个账号

QQ| 手机版|小黑屋| 蓝光电影网 |网站地图

Copyright © 2015-2019 Comsenz Inc.  Template by 蓝光电影网 All Rights Reserved.

Powered by 蓝光电影网 X3.4

特别声明:本站所有资源均由网上收集而来,版权归原影音公司所有,如果侵犯了你的权益,请通知我们,我们会及时删除侵权内容.

快速回复 返回顶部 返回列表