找回密码

蓝光电影网

查看: 91|回复: 0

[剧情] 金笼 The.Golden.Dream.2013.1080p.BluRay.x264-PHOBOS 9.83GB

[复制链接]

 成长值: 1420

发表于 2019-9-11 22:33:04 | 显示全部楼层 |阅读模式
金笼 The.Golden.Dream.2013.1080p.BluRay.x264-PHOBOS 9.83GB-1.png

译  名 金笼 / The Golden Dream / 我要去美国(台)
片  名 La jaula de oro
年  代 2013
产  地 墨西哥
类  别 剧情
语  言 西班牙语
上映日期 2013-05-22(戛纳电影节)
IMDb评分  7.7/10 from 4106 users
IMDb链接  http://www.imdb.com/title/tt2042583
豆瓣评分 7.4/10 from 423 users
豆瓣链接 https://movie.douban.com/subject/24289250/
片  长 110分钟
导  演 Diego Quemada-Diez
编  剧 Diego Quemada-Diez / Lucia Carreras / Gibrán Portela
主  演 Karen Martínez
       Rodolfo Dominguez
       Brandon López
       Carlos Chajon


标  签 墨西哥 | 剧情 | 墨西哥电影 | 2013 | 人性 | 社会 | 第66届戛纳电影节 | 迪亚哥·奎曼达-迪亚兹

简  介  

  15岁的Juan(Brandon López 饰)、Sara(Karen Martínez 饰)和 Samuel(Carlos Chajon 饰)逃离危地马拉,试图前往美国。当他们穿越墨西哥时,他们遇到了不会说一句西班牙语的印第安偷渡土著Chauk(Rodolfo Dominguez 饰)这几位少年憧憬在墨西哥边境的那一头过上更好的生活,但很快他们就发现事实并非如此。

获奖情况  

  第66届戛纳电影节(2013)
  金摄影机奖(导演处女作奖)(提名) 迪亚哥·奎曼达-迪亚兹
  一种关注单元 一种关注大奖(提名) 迪亚哥·奎曼达-迪亚兹
  一种关注单元 一种人才奖

  第28届西班牙戈雅奖(2014)
  最佳伊比利亚美洲电影(提名) 迪亚哥·奎曼达-迪亚兹

  第18届釜山国际电影节(2013)
  未来景象奖(提名) 迪亚哥·奎曼达-迪亚兹
  1. Video
  2. ID                                       : 1
  3. Format                                   : AVC
  4. Format/Info                              : Advanced Video Codec
  5. Format profile                           : <a href="/cdn-cgi/l/email-protection" class="__cf_email__" data-cfemail="6f270608072f235b415e">High@L4.1</a>
  6. Format settings                          : CABAC / 5 Ref Frames
  7. Format settings, CABAC                   : Yes
  8. Format settings, Reference frames        : 5 frames
  9. Codec ID                                 : V_MPEG4/ISO/AVC
  10. Duration                                 : 1 h 48 min
  11. Bit rate                                 : 12.6 Mb/s
  12. Width                                    : 1 920 pixels
  13. Height                                   : 808 pixels
  14. Display aspect ratio                     : 2.40:1
  15. Frame rate mode                          : Constant
  16. Frame rate                               : 23.976 (24000/1001) FPS
  17. Color space                              : YUV
  18. Chroma subsampling                       : 4:2:0
  19. Bit depth                                : 8 bits
  20. Scan type                                : Progressive
  21. Bits/(Pixel*Frame)                       : 0.338
  22. Stream size                              : 9.49 GiB (97%)
  23. Writing library                          : x264 core 146 r2538M 121396c
  24. Encoding settings                        : cabac=1 / ref=5 / deblock=1:0:0 / analyse=0x3:0x133 / me=umh / subme=10 / psy=1 / psy_rd=1.00:0.00 / mixed_ref=1 / me_range=24 / chroma_me=1 / trellis=2 / 8x8dct=1 / cqm=0 / deadzone=21,11 / fast_pskip=1 / chroma_qp_offset=-2 / threads=6 / lookahead_threads=1 / sliced_threads=0 / nr=0 / decimate=1 / interlaced=0 / bluray_compat=0 / constrained_intra=0 / bframes=8 / b_pyramid=2 / b_adapt=2 / b_bias=0 / direct=3 / weightb=1 / open_gop=0 / weightp=2 / keyint=250 / keyint_min=23 / scenecut=40 / intra_refresh=0 / rc_lookahead=60 / rc=2pass / mbtree=1 / bitrate=12572 / ratetol=1.0 / qcomp=0.60 / qpmin=0 / qpmax=69 / qpstep=4 / cplxblur=20.0 / qblur=0.5 / ip_ratio=1.40 / aq=1:1.00
  25. Default                                  : Yes
  26. Forced                                   : No

  27. Audio
  28. ID                                       : 2
  29. Format                                   : AC-3
  30. Format/Info                              : Audio Coding 3
  31. Commercial name                          : Dolby Digital
  32. Codec ID                                 : A_AC3
  33. Duration                                 : 1 h 48 min
  34. Bit rate mode                            : Constant
  35. Bit rate                                 : 448 kb/s
  36. Channel(s)                               : 6 channels
  37. Channel layout                           : L R C LFE Ls Rs
  38. Sampling rate                            : 48.0 kHz
  39. Frame rate                               : 31.250 FPS (1536 SPF)
  40. Bit depth                                : 16 bits
  41. Compression mode                         : Lossy
  42. Stream size                              : 347 MiB (3%)
  43. Language                                 : Spanish
  44. Service kind                             : Complete Main
  45. Default                                  : Yes
  46. Forced                                   : No

  47. Text
  48. ID                                       : 3
  49. Format                                   : UTF-8
  50. Codec ID                                 : S_TEXT/UTF8
  51. Codec ID/Info                            : UTF-8 Plain Text
  52. Duration                                 : 1 h 34 min
  53. Bit rate                                 : 17 b/s
  54. Count of elements                        : 499
  55. Stream size                              : 12.5 KiB (0%)
  56. Language                                 : English
  57. Default                                  : Yes
  58. Forced                                   : No

  59. Menu
  60. 00:00:00.000                             : en:00:00:00.000
  61. 00:12:59.862                             : en:00:12:59.862
  62. 00:26:05.355                             : en:00:26:05.355
  63. 00:37:46.931                             : en:00:37:46.931
  64. 00:50:13.719                             : en:00:50:13.719
  65. 01:01:16.047                             : en:01:01:16.047
  66. 01:14:31.092                             : en:01:14:31.092
  67. 01:25:41.136                             : en:01:25:41.136
  68. 01:42:22.845                             : en:01:42:22.845
复制代码

金笼 The.Golden.Dream.2013.1080p.BluRay.x264-PHOBOS 9.83GB-2.png 金笼 The.Golden.Dream.2013.1080p.BluRay.x264-PHOBOS 9.83GB-3.png 金笼 The.Golden.Dream.2013.1080p.BluRay.x264-PHOBOS 9.83GB-4.png






开通VIP免费下载本站所有资源---点这里
新手必看:资源下载常见问题---点这里
回复

使用道具 举报

懒得打字嘛,点击右侧快捷回复 【右侧内容,后台自定义】
您需要登录后才可以回帖 登录 | 立即加入

本版积分规则

现在加入蓝光电影网,注册一个账号

QQ| 手机版|小黑屋| 蓝光电影网 |网站地图

Copyright © 2015-2019 Comsenz Inc.  Template by 蓝光电影网 All Rights Reserved.

Powered by 蓝光电影网 X3.4

特别声明:本站所有资源均由网上收集而来,版权归原影音公司所有,如果侵犯了你的权益,请通知我们,我们会及时删除侵权内容.

快速回复 返回顶部 返回列表