找回密码

蓝光电影网

查看: 98|回复: 4

[动画] 恐龙当家/善良的恐龙 The.Good.Dinosaur.2015.1080p.BluRay.x264.DTS-HD.MA.7.1-SWTYBLZ 10.62GB

[复制链接]

 成长值: 1420

发表于 2019-9-11 22:31:50 | 显示全部楼层 |阅读模式
恐龙当家/善良的恐龙 The.Good.Dinosaur.2015.1080p.BluRay.x264.DTS-HD.MA.7.1-SWTYBLZ 10.62GB-1.png

译  名 恐龙当家 / 善良的恐龙 / 恐龙大时代(港) / 恐龙管家 / 美好的恐龙世界
片  名 The Good Dinosaur
年  代 2015
产  地 美国
类  别 喜剧 / 动画 / 家庭 / 冒险
语  言 英语
上映日期 2015-11-25(美国)
IMDb评分  6.7/10 from 92908 users
IMDb链接  http://www.imdb.com/title/tt1979388
豆瓣评分 7.3/10 from 36588 users
豆瓣链接 https://movie.douban.com/subject/6875863/
片  长 93分钟
导  演 彼得·孙 Peter Sohn
编  剧 鲍勃·彼德森 Bob Peterson / 彼得·孙 Peter Sohn / 埃里克·本森 Erik Benson / 梅格·勒福夫 Meg LeFauve / 凯尔西·曼 Kelsey Mann / 彼得·赫奇斯 Peter Hedges / 阿德里安·莫利纳 Adrian Molina
主  演 雷蒙德·奥乔亚 Raymond Ochoa
       杰克·布赖特 Jack Bright
       杰弗里·怀特 Jeffrey Wright
       史蒂夫·茨恩 Steve Zahn
       A·J·巴克利 A.J. Buckley
       安娜·帕奎因 Anna Paquin
       山姆·艾里奥特 Sam Elliott
       弗兰西斯·麦克多蒙德 Frances McDormand
       马库斯·斯克里布纳 Marcus Scribner
       彼得·索恩 Peter Sohn


标  签 动画 | 美国 | 皮克斯 | 成长 | 迪士尼 | 冒险 | Pixar | 2015

简  介  

  6500万年前,一颗小行星与地球擦肩而过,称霸这个世界的恐龙懵懵懂懂地逃过了灭顶之灾。之后又过了数百万年,恐龙的智力得到进化,它们学会种植、畜牧、建筑,并且拥有属于自己的语言和家庭。某座山脚下的平原地带,雷龙一家迎来三个性格各异的娃娃,最小的阿洛(雷蒙德·奥乔亚 Ray mond Ochoa 配音)孱弱胆怯,与父亲的生离死别更在他的心中投下难以磨灭的阴影。一连串的事件过后,他与妈妈、哥哥、姐姐相隔万里。阿洛将这一切都归罪于原始人类的小孩点点(杰克·布赖特 Jack Bright 配音)。而点点似乎不为所动,他主动亲近阿洛,仿佛是一条忠诚勇敢的小狗。
  在充满坎坷和危险的回家之路上,阿洛与点点结伴而行,而这两个本不该碰面的恐龙和人类,将缔结超越了种族和时空的纯真友情……

获奖情况  

  第73届金球奖(2016)
  电影类 最佳动画长片(提名)

  第43届动画安妮奖(2016)
  最佳动画长片(提名)
  最佳配乐(提名)
  最佳分镜(提名)
  最佳艺术指导(提名)
  最佳动画角色(提名)
  最佳角色设计(提名)
  最佳动画效果

  第27届美国制片人工会奖(2016)
  最佳动画片制片人奖(提名)

  第66届美国剪辑工会奖(2016)
  动画片最佳剪辑(提名)

  第14届美国视觉效果协会奖(2016)
  最佳动画电影视觉效果
  最佳动画电影CG动画角色(提名)
  最佳动画电影CG背景
  最佳动画电影模拟动画效果

  第21届美国评论家选择电影奖(2016)
  最佳动画片(提名)

  第19届美国在线影评人协会奖(2015)
  最佳动画片(提名)

  第2届豆瓣电影年度榜单(2015)
  评分最高的动画片(提名)
  1. Video
  2. ID                                       : 1
  3. Format                                   : AVC
  4. Format/Info                              : Advanced Video Codec
  5. Format profile                           : <a href="/cdn-cgi/l/email-protection" class="__cf_email__" data-cfemail="90d8f9f7f8d0dca4bea1">High@L4.1</a>
  6. Format settings                          : CABAC / 5 Ref Frames
  7. Format settings, CABAC                   : Yes
  8. Format settings, Reference frames        : 5 frames
  9. Codec ID                                 : V_MPEG4/ISO/AVC
  10. Duration                                 : 1 h 33 min
  11. Bit rate                                 : 12.6 Mb/s
  12. Width                                    : 1 920 pixels
  13. Height                                   : 804 pixels
  14. Display aspect ratio                     : 2.40:1
  15. Frame rate mode                          : Constant
  16. Frame rate                               : 23.976 (24000/1001) FPS
  17. Color space                              : YUV
  18. Chroma subsampling                       : 4:2:0
  19. Bit depth                                : 8 bits
  20. Scan type                                : Progressive
  21. Bits/(Pixel*Frame)                       : 0.340
  22. Stream size                              : 8.22 GiB (77%)
  23. Title                                    : The.Good.Dinosaur.2015.1080p.BluRay.x264.DTS-HD.MA.7.1-SWTYBLZ
  24. Writing library                          : x264 core 157 r2935 545de2f
  25. Encoding settings                        : cabac=1 / ref=5 / deblock=1:1:1 / analyse=0x3:0x133 / me=umh / subme=10 / psy=1 / psy_rd=0.40:0.00 / mixed_ref=1 / me_range=48 / chroma_me=1 / trellis=2 / 8x8dct=1 / cqm=0 / deadzone=21,11 / fast_pskip=1 / chroma_qp_offset=-2 / threads=25 / lookahead_threads=6 / sliced_threads=0 / nr=0 / decimate=0 / interlaced=0 / bluray_compat=0 / constrained_intra=0 / bframes=10 / b_pyramid=2 / b_adapt=2 / b_bias=0 / direct=3 / weightb=1 / open_gop=0 / weightp=2 / keyint=250 / keyint_min=23 / scenecut=40 / intra_refresh=0 / rc_lookahead=60 / rc=crf / mbtree=1 / crf=16.0 / qcomp=0.60 / qpmin=0 / qpmax=69 / qpstep=4 / ip_ratio=1.40 / aq=1:0.60
  26. Default                                  : Yes
  27. Forced                                   : No

  28. Audio
  29. ID                                       : 2
  30. Format                                   : DTS XLL
  31. Format/Info                              : Digital Theater Systems
  32. Commercial name                          : DTS-HD Master Audio
  33. Codec ID                                 : A_DTS
  34. Duration                                 : 1 h 33 min
  35. Bit rate mode                            : Variable
  36. Bit rate                                 : 3 642 kb/s
  37. Channel(s)                               : 8 channels
  38. Channel layout                           : C L R LFE Lb Rb Lss Rss
  39. Sampling rate                            : 48.0 kHz
  40. Frame rate                               : 93.750 FPS (512 SPF)
  41. Bit depth                                : 24 bits
  42. Compression mode                         : Lossless
  43. Stream size                              : 2.38 GiB (22%)
  44. Title                                    : The.Good.Dinosaur.2015.1080p.BluRay.x264.DTS-HD.MA.7.1-SWTYBLZ
  45. Language                                 : English
  46. Default                                  : No
  47. Forced                                   : No

  48. Text #1
  49. ID                                       : 3
  50. Format                                   : UTF-8
  51. Codec ID                                 : S_TEXT/UTF8
  52. Codec ID/Info                            : UTF-8 Plain Text
  53. Duration                                 : 1 h 21 min
  54. Bit rate                                 : 24 b/s
  55. Count of elements                        : 530
  56. Stream size                              : 14.4 KiB (0%)
  57. Title                                    : English-SRT
  58. Language                                 : English
  59. Default                                  : Yes
  60. Forced                                   : No

  61. Text #2
  62. ID                                       : 4
  63. Format                                   : PGS
  64. Muxing mode                              : zlib
  65. Codec ID                                 : S_HDMV/PGS
  66. Codec ID/Info                            : Picture based subtitle format used on BDs/HD-DVDs
  67. Duration                                 : 1 h 23 min
  68. Bit rate                                 : 22.9 kb/s
  69. Count of elements                        : 1770
  70. Stream size                              : 13.7 MiB (0%)
  71. Title                                    : English-PGS
  72. Language                                 : English
  73. Default                                  : No
  74. Forced                                   : No

  75. Text #3
  76. ID                                       : 5
  77. Format                                   : PGS
  78. Muxing mode                              : zlib
  79. Codec ID                                 : S_HDMV/PGS
  80. Codec ID/Info                            : Picture based subtitle format used on BDs/HD-DVDs
  81. Duration                                 : 1 h 24 min
  82. Bit rate                                 : 14.8 kb/s
  83. Count of elements                        : 960
  84. Stream size                              : 8.90 MiB (0%)
  85. Title                                    : French-PGS
  86. Language                                 : French
  87. Default                                  : No
  88. Forced                                   : No

  89. Text #4
  90. ID                                       : 6
  91. Format                                   : PGS
  92. Muxing mode                              : zlib
  93. Codec ID                                 : S_HDMV/PGS
  94. Codec ID/Info                            : Picture based subtitle format used on BDs/HD-DVDs
  95. Duration                                 : 1 h 24 min
  96. Bit rate                                 : 14.3 kb/s
  97. Count of elements                        : 954
  98. Stream size                              : 8.57 MiB (0%)
  99. Title                                    : Spanish-PGS
  100. Language                                 : Spanish
  101. Default                                  : No
  102. Forced                                   : No

  103. Menu
  104. 00:00:00.000                             : en:Chapter 01
  105. 00:03:37.926                             : en:Chapter 02
  106. 00:06:16.459                             : en:Chapter 03
  107. 00:08:14.160                             : en:Chapter 04
  108. 00:12:12.606                             : en:Chapter 05
  109. 00:14:33.914                             : en:Chapter 06
  110. 00:17:42.102                             : en:Chapter 07
  111. 00:21:10.644                             : en:Chapter 08
  112. 00:22:58.168                             : en:Chapter 09
  113. 00:26:41.057                             : en:Chapter 10
  114. 00:29:02.615                             : en:Chapter 11
  115. 00:33:10.071                             : en:Chapter 12
  116. 00:35:28.668                             : en:Chapter 13
  117. 00:38:14.417                             : en:Chapter 14
  118. 00:41:08.841                             : en:Chapter 15
  119. 00:45:42.948                             : en:Chapter 16
  120. 00:47:47.948                             : en:Chapter 17
  121. 00:51:48.271                             : en:Chapter 18
  122. 00:55:46.968                             : en:Chapter 19
  123. 01:00:22.952                             : en:Chapter 20
  124. 01:03:59.001                             : en:Chapter 21
  125. 01:05:27.214                             : en:Chapter 22
  126. 01:07:11.777                             : en:Chapter 23
  127. 01:11:06.428                             : en:Chapter 24
  128. 01:13:43.377                             : en:Chapter 25
  129. 01:16:01.306                             : en:Chapter 26
  130. 01:19:08.118                             : en:Chapter 27
  131. 01:23:56.698                             : en:Chapter 28
  132. 01:26:00.780                             : en:Chapter 29
复制代码

恐龙当家/善良的恐龙 The.Good.Dinosaur.2015.1080p.BluRay.x264.DTS-HD.MA.7.1-SWTYBLZ 10.62GB-2.png 恐龙当家/善良的恐龙 The.Good.Dinosaur.2015.1080p.BluRay.x264.DTS-HD.MA.7.1-SWTYBLZ 10.62GB-3.png 恐龙当家/善良的恐龙 The.Good.Dinosaur.2015.1080p.BluRay.x264.DTS-HD.MA.7.1-SWTYBLZ 10.62GB-4.png





开通VIP免费下载本站所有资源---点这里
新手必看:资源下载常见问题---点这里
回复

使用道具 举报

发表于 2019-9-12 08:31:23 | 显示全部楼层
楼主发贴辛苦了,谢谢楼主分享!我觉得蓝光电影网是注册对了!
开通VIP免费下载本站所有资源---点这里
新手必看:资源下载常见问题---点这里
回复 支持 反对

使用道具 举报

发表于 2019-9-12 09:07:04 | 显示全部楼层
楼主发贴辛苦了,谢谢楼主分享!我觉得蓝光电影网是注册对了!
开通VIP免费下载本站所有资源---点这里
新手必看:资源下载常见问题---点这里
回复 支持 反对

使用道具 举报

发表于 2019-9-12 22:39:02 | 显示全部楼层
支持感谢楼主慷慨奉献
开通VIP免费下载本站所有资源---点这里
新手必看:资源下载常见问题---点这里
回复 支持 反对

使用道具 举报

 成长值: 115

发表于 2019-9-13 22:07:55 | 显示全部楼层

楼主太厉害了!楼主,电影应该很好看我觉得蓝光电影网真是个好地方!
开通VIP免费下载本站所有资源---点这里
新手必看:资源下载常见问题---点这里
回复 支持 反对

使用道具 举报

懒得打字嘛,点击右侧快捷回复 【右侧内容,后台自定义】
您需要登录后才可以回帖 登录 | 立即加入

本版积分规则

现在加入蓝光电影网,注册一个账号

QQ| 手机版|小黑屋| 蓝光电影网 |网站地图

Copyright © 2015-2019 Comsenz Inc.  Template by 蓝光电影网 All Rights Reserved.

Powered by 蓝光电影网 X3.4

特别声明:本站所有资源均由网上收集而来,版权归原影音公司所有,如果侵犯了你的权益,请通知我们,我们会及时删除侵权内容.

快速回复 返回顶部 返回列表