找回密码

蓝光电影网

查看: 45|回复: 0

[动画] 恐龙当家/善良的恐龙 The.Good.Dinosaur.2015.1080p.BluRay.x264.TrueHD.7.1.Atmos-SWTYBLZ 12.85GB

[复制链接]

 成长值: 1420

发表于 2019-9-11 22:30:38 | 显示全部楼层 |阅读模式
恐龙当家/善良的恐龙 The.Good.Dinosaur.2015.1080p.BluRay.x264.TrueHD.7.1.Atmos-SWTYBLZ 12.85GB-1.png

译  名 恐龙当家 / 善良的恐龙 / 恐龙大时代(港) / 恐龙管家 / 美好的恐龙世界
片  名 The Good Dinosaur
年  代 2015
产  地 美国
类  别 喜剧 / 动画 / 家庭 / 冒险
语  言 英语
上映日期 2015-11-25(美国)
IMDb评分  6.7/10 from 92908 users
IMDb链接  http://www.imdb.com/title/tt1979388
豆瓣评分 7.3/10 from 36588 users
豆瓣链接 https://movie.douban.com/subject/6875863/
片  长 93分钟
导  演 彼得·孙 Peter Sohn
编  剧 鲍勃·彼德森 Bob Peterson / 彼得·孙 Peter Sohn / 埃里克·本森 Erik Benson / 梅格·勒福夫 Meg LeFauve / 凯尔西·曼 Kelsey Mann / 彼得·赫奇斯 Peter Hedges / 阿德里安·莫利纳 Adrian Molina
主  演 雷蒙德·奥乔亚 Raymond Ochoa
       杰克·布赖特 Jack Bright
       杰弗里·怀特 Jeffrey Wright
       史蒂夫·茨恩 Steve Zahn
       A·J·巴克利 A.J. Buckley
       安娜·帕奎因 Anna Paquin
       山姆·艾里奥特 Sam Elliott
       弗兰西斯·麦克多蒙德 Frances McDormand
       马库斯·斯克里布纳 Marcus Scribner
       彼得·索恩 Peter Sohn


标  签 动画 | 美国 | 皮克斯 | 成长 | 迪士尼 | 冒险 | Pixar | 2015

简  介  

  6500万年前,一颗小行星与地球擦肩而过,称霸这个世界的恐龙懵懵懂懂地逃过了灭顶之灾。之后又过了数百万年,恐龙的智力得到进化,它们学会种植、畜牧、建筑,并且拥有属于自己的语言和家庭。某座山脚下的平原地带,雷龙一家迎来三个性格各异的娃娃,最小的阿洛(雷蒙德·奥乔亚 Ray mond Ochoa 配音)孱弱胆怯,与父亲的生离死别更在他的心中投下难以磨灭的阴影。一连串的事件过后,他与妈妈、哥哥、姐姐相隔万里。阿洛将这一切都归罪于原始人类的小孩点点(杰克·布赖特 Jack Bright 配音)。而点点似乎不为所动,他主动亲近阿洛,仿佛是一条忠诚勇敢的小狗。
  在充满坎坷和危险的回家之路上,阿洛与点点结伴而行,而这两个本不该碰面的恐龙和人类,将缔结超越了种族和时空的纯真友情……

获奖情况  

  第73届金球奖(2016)
  电影类 最佳动画长片(提名)

  第43届动画安妮奖(2016)
  最佳动画长片(提名)
  最佳配乐(提名)
  最佳分镜(提名)
  最佳艺术指导(提名)
  最佳动画角色(提名)
  最佳角色设计(提名)
  最佳动画效果

  第27届美国制片人工会奖(2016)
  最佳动画片制片人奖(提名)

  第66届美国剪辑工会奖(2016)
  动画片最佳剪辑(提名)

  第14届美国视觉效果协会奖(2016)
  最佳动画电影视觉效果
  最佳动画电影CG动画角色(提名)
  最佳动画电影CG背景
  最佳动画电影模拟动画效果

  第21届美国评论家选择电影奖(2016)
  最佳动画片(提名)

  第19届美国在线影评人协会奖(2015)
  最佳动画片(提名)

  第2届豆瓣电影年度榜单(2015)
  评分最高的动画片(提名)
  1. Video
  2. ID                                       : 1
  3. Format                                   : AVC
  4. Format/Info                              : Advanced Video Codec
  5. Format profile                           : <a href="/cdn-cgi/l/email-protection" class="__cf_email__" data-cfemail="cb83a2aca38b87ffe5fa">High@L4.1</a>
  6. Format settings                          : CABAC / 5 Ref Frames
  7. Format settings, CABAC                   : Yes
  8. Format settings, Reference frames        : 5 frames
  9. Codec ID                                 : V_MPEG4/ISO/AVC
  10. Duration                                 : 1 h 33 min
  11. Bit rate                                 : 12.6 Mb/s
  12. Width                                    : 1 920 pixels
  13. Height                                   : 804 pixels
  14. Display aspect ratio                     : 2.40:1
  15. Frame rate mode                          : Constant
  16. Frame rate                               : 23.976 (24000/1001) FPS
  17. Color space                              : YUV
  18. Chroma subsampling                       : 4:2:0
  19. Bit depth                                : 8 bits
  20. Scan type                                : Progressive
  21. Bits/(Pixel*Frame)                       : 0.340
  22. Stream size                              : 8.22 GiB (64%)
  23. Title                                    : The.Good.Dinosaur.2015.1080p.BluRay.x264.TrueHD.7.1.Atmos-SWTYBLZ
  24. Writing library                          : x264 core 157 r2935 545de2f
  25. Encoding settings                        : cabac=1 / ref=5 / deblock=1:1:1 / analyse=0x3:0x133 / me=umh / subme=10 / psy=1 / psy_rd=0.40:0.00 / mixed_ref=1 / me_range=48 / chroma_me=1 / trellis=2 / 8x8dct=1 / cqm=0 / deadzone=21,11 / fast_pskip=1 / chroma_qp_offset=-2 / threads=25 / lookahead_threads=6 / sliced_threads=0 / nr=0 / decimate=0 / interlaced=0 / bluray_compat=0 / constrained_intra=0 / bframes=10 / b_pyramid=2 / b_adapt=2 / b_bias=0 / direct=3 / weightb=1 / open_gop=0 / weightp=2 / keyint=250 / keyint_min=23 / scenecut=40 / intra_refresh=0 / rc_lookahead=60 / rc=crf / mbtree=1 / crf=16.0 / qcomp=0.60 / qpmin=0 / qpmax=69 / qpstep=4 / ip_ratio=1.40 / aq=1:0.60
  26. Default                                  : Yes
  27. Forced                                   : No

  28. Audio #1
  29. ID                                       : 2
  30. Format                                   : MLP FBA 16-ch
  31. Format/Info                              : Meridian Lossless Packing FBA with 16-channel presentation
  32. Commercial name                          : Dolby TrueHD with Dolby Atmos
  33. Codec ID                                 : A_TRUEHD
  34. Duration                                 : 1 h 33 min
  35. Bit rate mode                            : Variable
  36. Bit rate                                 : 6 345 kb/s
  37. Maximum bit rate                         : 8 292 kb/s
  38. Channel(s)                               : 8 channels
  39. Channel layout                           : L R C LFE Ls Rs Lb Rb
  40. Sampling rate                            : 48.0 kHz
  41. Frame rate                               : 1 200.000 FPS (40 SPF)
  42. Compression mode                         : Lossless
  43. Stream size                              : 4.15 GiB (32%)
  44. Title                                    : The.Good.Dinosaur.2015.1080p.BluRay.x264.TrueHD.7.1.Atmos-SWTYBLZ
  45. Language                                 : English
  46. Default                                  : Yes
  47. Forced                                   : No
  48. Number of dynamic objects                : 13
  49. Bed channel count                        : 1 channel
  50. Bed channel configuration                : LFE

  51. Audio #2
  52. ID                                       : 3
  53. Format                                   : AC-3
  54. Format/Info                              : Audio Coding 3
  55. Commercial name                          : Dolby Digital
  56. Codec ID                                 : A_AC3
  57. Duration                                 : 1 h 33 min
  58. Bit rate mode                            : Constant
  59. Bit rate                                 : 640 kb/s
  60. Channel(s)                               : 6 channels
  61. Channel layout                           : L R C LFE Ls Rs
  62. Sampling rate                            : 48.0 kHz
  63. Frame rate                               : 31.250 FPS (1536 SPF)
  64. Bit depth                                : 16 bits
  65. Compression mode                         : Lossy
  66. Stream size                              : 429 MiB (3%)
  67. Title                                    : The.Good.Dinosaur.2015.1080p.BluRay.x264.TrueHD.7.1.Atmos-SWTYBLZ
  68. Language                                 : English
  69. Service kind                             : Complete Main
  70. Default                                  : No
  71. Forced                                   : No

  72. Text #1
  73. ID                                       : 4
  74. Format                                   : UTF-8
  75. Codec ID                                 : S_TEXT/UTF8
  76. Codec ID/Info                            : UTF-8 Plain Text
  77. Duration                                 : 1 h 21 min
  78. Bit rate                                 : 24 b/s
  79. Count of elements                        : 530
  80. Stream size                              : 14.4 KiB (0%)
  81. Title                                    : English-SRT
  82. Language                                 : English
  83. Default                                  : Yes
  84. Forced                                   : No

  85. Text #2
  86. ID                                       : 5
  87. Format                                   : PGS
  88. Muxing mode                              : zlib
  89. Codec ID                                 : S_HDMV/PGS
  90. Codec ID/Info                            : Picture based subtitle format used on BDs/HD-DVDs
  91. Duration                                 : 1 h 23 min
  92. Bit rate                                 : 22.9 kb/s
  93. Count of elements                        : 1770
  94. Stream size                              : 13.7 MiB (0%)
  95. Title                                    : English-PGS
  96. Language                                 : English
  97. Default                                  : No
  98. Forced                                   : No

  99. Text #3
  100. ID                                       : 6
  101. Format                                   : PGS
  102. Muxing mode                              : zlib
  103. Codec ID                                 : S_HDMV/PGS
  104. Codec ID/Info                            : Picture based subtitle format used on BDs/HD-DVDs
  105. Duration                                 : 1 h 24 min
  106. Bit rate                                 : 14.8 kb/s
  107. Count of elements                        : 960
  108. Stream size                              : 8.90 MiB (0%)
  109. Title                                    : French-PGS
  110. Language                                 : French
  111. Default                                  : No
  112. Forced                                   : No

  113. Text #4
  114. ID                                       : 7
  115. Format                                   : PGS
  116. Muxing mode                              : zlib
  117. Codec ID                                 : S_HDMV/PGS
  118. Codec ID/Info                            : Picture based subtitle format used on BDs/HD-DVDs
  119. Duration                                 : 1 h 24 min
  120. Bit rate                                 : 14.3 kb/s
  121. Count of elements                        : 954
  122. Stream size                              : 8.57 MiB (0%)
  123. Title                                    : Spanish-PGS
  124. Language                                 : Spanish
  125. Default                                  : No
  126. Forced                                   : No

  127. Menu
  128. 00:00:00.000                             : en:Chapter 01
  129. 00:03:37.926                             : en:Chapter 02
  130. 00:06:16.459                             : en:Chapter 03
  131. 00:08:14.160                             : en:Chapter 04
  132. 00:12:12.606                             : en:Chapter 05
  133. 00:14:33.914                             : en:Chapter 06
  134. 00:17:42.102                             : en:Chapter 07
  135. 00:21:10.644                             : en:Chapter 08
  136. 00:22:58.168                             : en:Chapter 09
  137. 00:26:41.057                             : en:Chapter 10
  138. 00:29:02.615                             : en:Chapter 11
  139. 00:33:10.071                             : en:Chapter 12
  140. 00:35:28.668                             : en:Chapter 13
  141. 00:38:14.417                             : en:Chapter 14
  142. 00:41:08.841                             : en:Chapter 15
  143. 00:45:42.948                             : en:Chapter 16
  144. 00:47:47.948                             : en:Chapter 17
  145. 00:51:48.271                             : en:Chapter 18
  146. 00:55:46.968                             : en:Chapter 19
  147. 01:00:22.952                             : en:Chapter 20
  148. 01:03:59.001                             : en:Chapter 21
  149. 01:05:27.214                             : en:Chapter 22
  150. 01:07:11.777                             : en:Chapter 23
  151. 01:11:06.428                             : en:Chapter 24
  152. 01:13:43.377                             : en:Chapter 25
  153. 01:16:01.306                             : en:Chapter 26
  154. 01:19:08.118                             : en:Chapter 27
  155. 01:23:56.698                             : en:Chapter 28
  156. 01:26:00.780                             : en:Chapter 29
复制代码

恐龙当家/善良的恐龙 The.Good.Dinosaur.2015.1080p.BluRay.x264.TrueHD.7.1.Atmos-SWTYBLZ 12.85GB-2.png 恐龙当家/善良的恐龙 The.Good.Dinosaur.2015.1080p.BluRay.x264.TrueHD.7.1.Atmos-SWTYBLZ 12.85GB-3.png 恐龙当家/善良的恐龙 The.Good.Dinosaur.2015.1080p.BluRay.x264.TrueHD.7.1.Atmos-SWTYBLZ 12.85GB-4.png






开通VIP免费下载本站所有资源---点这里
新手必看:资源下载常见问题---点这里
回复

使用道具 举报

懒得打字嘛,点击右侧快捷回复 【右侧内容,后台自定义】
您需要登录后才可以回帖 登录 | 立即加入

本版积分规则

现在加入蓝光电影网,注册一个账号

QQ| 手机版|小黑屋| 蓝光电影网 |网站地图

Copyright © 2015-2019 Comsenz Inc.  Template by 蓝光电影网 All Rights Reserved.

Powered by 蓝光电影网 X3.4

特别声明:本站所有资源均由网上收集而来,版权归原影音公司所有,如果侵犯了你的权益,请通知我们,我们会及时删除侵权内容.

快速回复 返回顶部 返回列表