找回密码

蓝光电影网

查看: 324|回复: 16

[10bit.SDR] 美食总动员/五星级大鼠 Ratatouille.2007.2160p.BluRay.x265.10bit.SDR.TrueHD.7.1.Atmos-SWTYBLZ 15.41GB

[复制链接]

 成长值: 1345

发表于 5 天前 | 显示全部楼层 |阅读模式
美食总动员/五星级大鼠 Ratatouille.2007.2160p.BluRay.x265.10bit.SDR.TrueHD.7.1.Atmos-SWTYBLZ 15.41GB-1.png

译  名 美食总动员 / 五星级大鼠(港) / 小鼠大厨 / 料理鼠王(台) / 蔬菜杂烩
片  名 Ratatouille
年  代 2007
产  地 美国
类  别 喜剧 / 动画 / 奇幻
语  言 英语 / 法语
上映日期 2007-06-29(美国) / 2007-10-19(中国大陆)
IMDb评分  8.0/10 from 589266 users
IMDb链接  http://www.imdb.com/title/tt0382932
豆瓣评分 8.4/10 from 236163 users
豆瓣链接 https://movie.douban.com/subject/1793491/
片  长 111 分钟
导  演 Brad Bird / Jan Pinkava
编  剧 Brad Bird / Jan Pinkava
主  演 Patton Oswalt
       Peter O'Toole
       Brad Garrett
       Ian Holm
       Lou Romano
       Brian Dennehy
       Peter Sohn
       Janeane Garofalo


标  签 动画 | 美国 | 喜剧 | pixar | 动画片 | 美国电影 | 2007 | 皮克斯

简  介  

  小老鼠雷米在嗅觉方面有着无与伦比的天赋,不想过与垃圾堆为伴的生活,心怀成为五星大厨的梦想。
  一个偶然的机会,他认识了古斯特餐厅的学徒林奎尼,这个倒霉的学徒生性害羞,在厨艺上更是没有什么天赋,并且遭到餐厅大厨的排挤,即将被解雇。这一人一鼠结成了奇特的联盟:雷米奉献自己极富创造力的大脑。操作林奎尼前台“表演”。
  在雷米的帮助下,林奎尼不但成为新的“天才厨师”,获得了美女同事的爱情,还挫败了大厨的阴谋,成为古斯特餐厅的合法继承人。突如起来的成功让林奎尼有些不知所措,想摆脱自己的傀儡身份,把雷米赶出了厨房。
  古斯特餐厅的成功,引起了苛刻的美食评论家科隆的注意,准备一尝林奎尼的手艺,重新为餐厅评定星级;而不甘失败的前大厨,蠢蠢欲动,想要找到林奎尼一夜成名的秘密。失去了雷米,林奎尼该如何面对这些问题……

获奖情况  

  第80届奥斯卡金像奖(2008)
  最佳原创剧本(提名) 简·皮克瓦 / 布拉德·伯德
  最佳动画长片 布拉德·伯德
  最佳混音(提名) 兰迪·汤姆 / Doc Kane / 迈克尔·斯曼内科
  最佳音效剪辑(提名) 兰迪·汤姆 / 迈克尔·席维斯
  最佳原创配乐(提名) 迈克·吉亚奇诺

  第61届英国电影学院奖(2008)
  电影奖 最佳动画片 布拉德·伯德

  第35届动画安妮奖(2008)
  最佳动画长片
  最佳导演 布拉德·伯德
  最佳编剧 布拉德·伯德
  最佳配音 伊安·霍姆
  最佳配音(提名) 詹妮安·加罗法洛 / 帕顿·奥斯瓦尔特
  最佳配乐 迈克·吉亚奇诺
  最佳分镜 泰德·马托特
  最佳艺术指导 哈雷·杰斯普
  最佳动画角色(提名) Michal Makarewicz
  最佳角色设计 Carter Goodrich
  最佳动画效果(提名) Gary Bruins / Jon Reisch

  第8届美国电影学会奖(2007)
  年度佳片
  1. Video
  2. ID                                       : 1
  3. Format                                   : HEVC
  4. Format/Info                              : High Efficiency Video Coding
  5. Format profile                           : Main <a href="/cdn-cgi/l/email-protection" class="__cf_email__" data-cfemail="ecdddcaca0d9c2dd">[email protected]</a>@High
  6. Codec ID                                 : V_MPEGH/ISO/HEVC
  7. Duration                                 : 1 h 51 min
  8. Bit rate                                 : 11.7 Mb/s
  9. Width                                    : 3 840 pixels
  10. Height                                   : 1 606 pixels
  11. Display aspect ratio                     : 2.40:1
  12. Frame rate mode                          : Constant
  13. Frame rate                               : 23.976 (24000/1001) FPS
  14. Color space                              : YUV
  15. Chroma subsampling                       : 4:2:0
  16. Bit depth                                : 10 bits
  17. Bits/(Pixel*Frame)                       : 0.079
  18. Stream size                              : 9.06 GiB (59%)
  19. Title                                    : Ratatouille.2007.2160p.BluRay.x265.10bit.SDR.TrueHD.7.1.Atmos-SWTYBLZ
  20. Writing library                          : x265 3.0ed72af837053:[Windows][GCC 8.2.0][64 bit] 10bit
  21. Encoding settings                        : cpuid=1111039 / frame-threads=16 / numa-pools=44,44 / wpp / no-pmode / no-pme / no-psnr / no-ssim / log-level=2 / input-csp=1 / input-res=3840x1606 / interlace=0 / total-frames=159814 / level-idc=51 / high-tier=1 / uhd-bd=0 / ref=3 / no-allow-non-conformance / repeat-headers / annexb / aud / hrd / info / hash=0 / no-temporal-layers / no-open-gop / min-keyint=1 / keyint=24 / gop-lookahead=0 / bframes=6 / b-adapt=2 / b-pyramid / bframe-bias=0 / rc-lookahead=25 / lookahead-slices=4 / scenecut=40 / radl=0 / no-splice / no-intra-refresh / ctu=64 / min-cu-size=8 / no-rect / no-amp / max-tu-size=32 / tu-inter-depth=1 / tu-intra-depth=1 / limit-tu=0 / rdoq-level=0 / dynamic-rd=0.00 / no-ssim-rd / signhide / no-tskip / nr-intra=0 / nr-inter=0 / no-constrained-intra / strong-intra-smoothing / max-merge=2 / limit-refs=3 / no-limit-modes / me=1 / subme=2 / merange=57 / temporal-mvp / weightp / no-weightb / no-analyze-src-pics / deblock=1:1 / no-sao / no-sao-non-deblock / rd=3 / no-early-skip / rskip / no-fast-intra / no-tskip-fast / no-cu-lossless / no-b-intra / no-splitrd-skip / rdpenalty=0 / psy-rd=0.40 / psy-rdoq=0.00 / no-rd-refine / no-lossless / cbqpoffs=0 / crqpoffs=0 / rc=crf / crf=12.0 / qcomp=0.60 / qpstep=4 / stats-write=0 / stats-read=0 / vbv-maxrate=160000 / vbv-bufsize=160000 / vbv-init=0.9 / crf-max=0.0 / crf-min=0.0 / ipratio=1.40 / pbratio=1.30 / aq-mode=1 / aq-strength=0.40 / cutree / zone-count=0 / no-strict-cbr / qg-size=32 / no-rc-grain / qpmax=69 / qpmin=0 / no-const-vbv / sar=1 / overscan=0 / videoformat=5 / range=0 / colorprim=2 / transfer=2 / colormatrix=2 / chromaloc=0 / display-window=0 / max-cll=0,0 / min-luma=0 / max-luma=1023 / log2-max-poc-lsb=8 / vui-timing-info / vui-hrd-info / slices=1 / opt-qp-pps / opt-ref-list-length-pps / no-multi-pass-opt-rps / scenecut-bias=0.05 / no-opt-cu-delta-qp / no-aq-motion / no-hdr / no-hdr-opt / no-dhdr10-opt / no-idr-recovery-sei / analysis-reuse-level=5 / scale-factor=0 / refine-intra=0 / refine-inter=0 / refine-mv=0 / refine-ctu-distortion=0 / no-limit-sao / ctu-info=0 / no-lowpass-dct / refine-analysis-type=0 / copy-pic=1 / max-ausize-factor=1.0 / no-dynamic-refine / no-single-sei / no-hevc-aq / qp-adaptation-range=1.00
  22. Default                                  : Yes
  23. Forced                                   : No

  24. Audio #1
  25. ID                                       : 2
  26. Format                                   : MLP FBA 16-ch
  27. Format/Info                              : Meridian Lossless Packing FBA with 16-channel presentation
  28. Commercial name                          : Dolby TrueHD with Dolby Atmos
  29. Codec ID                                 : A_TRUEHD
  30. Duration                                 : 1 h 51 min
  31. Bit rate mode                            : Variable
  32. Bit rate                                 : 7 350 kb/s
  33. Maximum bit rate                         : 6 972 kb/s
  34. Channel(s)                               : 8 channels
  35. Channel layout                           : L R C LFE Ls Rs Lb Rb
  36. Sampling rate                            : 48.0 kHz
  37. Frame rate                               : 1 200.000 FPS (40 SPF)
  38. Compression mode                         : Lossless
  39. Stream size                              : 5.70 GiB (37%)
  40. Title                                    : Ratatouille.2007.2160p.BluRay.x265.10bit.SDR.TrueHD.7.1.Atmos-SWTYBLZ
  41. Language                                 : English
  42. Default                                  : Yes
  43. Forced                                   : No
  44. Number of dynamic objects                : 13
  45. Bed channel count                        : 1 channel
  46. Bed channel configuration                : LFE

  47. Audio #2
  48. ID                                       : 3
  49. Format                                   : AC-3
  50. Format/Info                              : Audio Coding 3
  51. Commercial name                          : Dolby Digital
  52. Codec ID                                 : A_AC3
  53. Duration                                 : 1 h 51 min
  54. Bit rate mode                            : Constant
  55. Bit rate                                 : 640 kb/s
  56. Channel(s)                               : 6 channels
  57. Channel layout                           : L R C LFE Ls Rs
  58. Sampling rate                            : 48.0 kHz
  59. Frame rate                               : 31.250 FPS (1536 SPF)
  60. Bit depth                                : 16 bits
  61. Compression mode                         : Lossy
  62. Stream size                              : 509 MiB (3%)
  63. Title                                    : Ratatouille.2007.2160p.BluRay.x265.10bit.SDR.TrueHD.7.1.Atmos-SWTYBLZ
  64. Language                                 : English
  65. Service kind                             : Complete Main
  66. Default                                  : No
  67. Forced                                   : No

  68. Text #1
  69. ID                                       : 4
  70. Format                                   : UTF-8
  71. Codec ID                                 : S_TEXT/UTF8
  72. Codec ID/Info                            : UTF-8 Plain Text
  73. Duration                                 : 1 h 42 min
  74. Bit rate                                 : 64 b/s
  75. Count of elements                        : 1328
  76. Stream size                              : 48.3 KiB (0%)
  77. Title                                    : English-SRT
  78. Language                                 : English
  79. Default                                  : Yes
  80. Forced                                   : No

  81. Text #2
  82. ID                                       : 5
  83. Format                                   : PGS
  84. Muxing mode                              : zlib
  85. Codec ID                                 : S_HDMV/PGS
  86. Codec ID/Info                            : Picture based subtitle format used on BDs/HD-DVDs
  87. Duration                                 : 1 h 42 min
  88. Bit rate                                 : 45.2 kb/s
  89. Count of elements                        : 3180
  90. Stream size                              : 33.0 MiB (0%)
  91. Title                                    : English-PGS
  92. Language                                 : English
  93. Default                                  : No
  94. Forced                                   : No

  95. Text #3
  96. ID                                       : 6
  97. Format                                   : PGS
  98. Muxing mode                              : zlib
  99. Codec ID                                 : S_HDMV/PGS
  100. Codec ID/Info                            : Picture based subtitle format used on BDs/HD-DVDs
  101. Duration                                 : 1 h 42 min
  102. Bit rate                                 : 39.8 kb/s
  103. Count of elements                        : 2600
  104. Stream size                              : 29.0 MiB (0%)
  105. Title                                    : French-PGS
  106. Language                                 : French
  107. Default                                  : No
  108. Forced                                   : No

  109. Text #4
  110. ID                                       : 7
  111. Format                                   : PGS
  112. Muxing mode                              : zlib
  113. Codec ID                                 : S_HDMV/PGS
  114. Codec ID/Info                            : Picture based subtitle format used on BDs/HD-DVDs
  115. Duration                                 : 1 h 42 min
  116. Bit rate                                 : 39.2 kb/s
  117. Count of elements                        : 2604
  118. Stream size                              : 28.6 MiB (0%)
  119. Title                                    : Spanish-PGS
  120. Language                                 : Spanish
  121. Default                                  : No
  122. Forced                                   : No

  123. Menu
  124. 00:00:00.000                             : en:Chapter 01
  125. 00:01:16.701                             : en:Chapter 02
  126. 00:06:30.223                             : en:Chapter 03
  127. 00:09:23.729                             : en:Chapter 04
  128. 00:10:58.532                             : en:Chapter 05
  129. 00:13:31.519                             : en:Chapter 06
  130. 00:17:40.851                             : en:Chapter 07
  131. 00:19:38.343                             : en:Chapter 08
  132. 00:24:49.154                             : en:Chapter 09
  133. 00:28:56.067                             : en:Chapter 10
  134. 00:33:05.775                             : en:Chapter 11
  135. 00:38:14.250                             : en:Chapter 12
  136. 00:40:33.722                             : en:Chapter 13
  137. 00:44:12.066                             : en:Chapter 14
  138. 00:47:00.108                             : en:Chapter 15
  139. 00:51:28.502                             : en:Chapter 16
  140. 00:57:03.002                             : en:Chapter 17
  141. 00:59:33.152                             : en:Chapter 18
  142. 01:00:54.359                             : en:Chapter 19
  143. 01:07:20.578                             : en:Chapter 20
  144. 01:11:26.490                             : en:Chapter 21
  145. 01:15:29.066                             : en:Chapter 22
  146. 01:19:25.927                             : en:Chapter 23
  147. 01:23:30.964                             : en:Chapter 24
  148. 01:25:35.296                             : en:Chapter 25
  149. 01:28:19.168                             : en:Chapter 26
  150. 01:32:39.595                             : en:Chapter 27
  151. 01:35:41.944                             : en:Chapter 28
  152. 01:38:50.341                             : en:Chapter 29
  153. 01:40:55.507                             : en:Chapter 30
  154. 01:42:59.798                             : en:Chapter 31
复制代码

美食总动员/五星级大鼠 Ratatouille.2007.2160p.BluRay.x265.10bit.SDR.TrueHD.7.1.Atmos-SWTYBLZ 15.41GB-2.png 美食总动员/五星级大鼠 Ratatouille.2007.2160p.BluRay.x265.10bit.SDR.TrueHD.7.1.Atmos-SWTYBLZ 15.41GB-3.png 美食总动员/五星级大鼠 Ratatouille.2007.2160p.BluRay.x265.10bit.SDR.TrueHD.7.1.Atmos-SWTYBLZ 15.41GB-4.png 美食总动员/五星级大鼠 Ratatouille.2007.2160p.BluRay.x265.10bit.SDR.TrueHD.7.1.Atmos-SWTYBLZ 15.41GB-5.png 美食总动员/五星级大鼠 Ratatouille.2007.2160p.BluRay.x265.10bit.SDR.TrueHD.7.1.Atmos-SWTYBLZ 15.41GB-6.png 美食总动员/五星级大鼠 Ratatouille.2007.2160p.BluRay.x265.10bit.SDR.TrueHD.7.1.Atmos-SWTYBLZ 15.41GB-7.png 美食总动员/五星级大鼠 Ratatouille.2007.2160p.BluRay.x265.10bit.SDR.TrueHD.7.1.Atmos-SWTYBLZ 15.41GB-8.png






开通VIP免费下载本站所有资源---点这里
新手必看:资源下载、资源播放、字幕使用、等常见问题---点这里
回复

使用道具 举报

发表于 5 天前 | 显示全部楼层
谢谢分享!!!!!
开通VIP免费下载本站所有资源---点这里
新手必看:资源下载、资源播放、字幕使用、等常见问题---点这里
回复

使用道具 举报

发表于 5 天前 | 显示全部楼层
感谢楼主分享
开通VIP免费下载本站所有资源---点这里
新手必看:资源下载、资源播放、字幕使用、等常见问题---点这里
回复 支持 反对

使用道具 举报

发表于 5 天前 | 显示全部楼层

既然你诚信诚意的推荐了,那我就勉为其难的看看吧!蓝光电影网不走平凡路。
开通VIP免费下载本站所有资源---点这里
新手必看:资源下载、资源播放、字幕使用、等常见问题---点这里
回复 支持 反对

使用道具 举报

发表于 5 天前 | 显示全部楼层
看过,挺好看的,谢谢楼主分享。
开通VIP免费下载本站所有资源---点这里
新手必看:资源下载、资源播放、字幕使用、等常见问题---点这里
回复 支持 反对

使用道具 举报

发表于 5 天前 | 显示全部楼层

我看不错噢 谢谢楼主!蓝光电影网越来越好!
开通VIP免费下载本站所有资源---点这里
新手必看:资源下载、资源播放、字幕使用、等常见问题---点这里
回复 支持 反对

使用道具 举报

发表于 5 天前 | 显示全部楼层
楼主发贴辛苦了,谢谢楼主分享!我觉得蓝光电影网是注册对了!
开通VIP免费下载本站所有资源---点这里
新手必看:资源下载、资源播放、字幕使用、等常见问题---点这里
回复 支持 反对

使用道具 举报

发表于 4 天前 | 显示全部楼层

这东西我收了!谢谢楼主!蓝光电影网真好!
开通VIP免费下载本站所有资源---点这里
新手必看:资源下载、资源播放、字幕使用、等常见问题---点这里
回复 支持 反对

使用道具 举报

发表于 4 天前 | 显示全部楼层
感谢楼主分享
开通VIP免费下载本站所有资源---点这里
新手必看:资源下载、资源播放、字幕使用、等常见问题---点这里
回复 支持 反对

使用道具 举报

发表于 4 天前 | 显示全部楼层
楼主发贴辛苦了,谢谢楼主分享!我觉得蓝光电影网是注册对了!
开通VIP免费下载本站所有资源---点这里
新手必看:资源下载、资源播放、字幕使用、等常见问题---点这里
回复 支持 反对

使用道具 举报

懒得打字嘛,点击右侧快捷回复 【右侧内容,后台自定义】
您需要登录后才可以回帖 登录 | 立即加入

本版积分规则

现在加入蓝光电影网,注册一个账号

QQ| 手机版|小黑屋| 蓝光电影网 |网站地图

Copyright © 2015-2019 Comsenz Inc.  Template by 蓝光电影网 All Rights Reserved.

Powered by 蓝光电影网 X3.4

特别声明:本站所有资源均由网上收集而来,版权归原影音公司所有,如果侵犯了你的权益,请通知我们,我们会及时删除侵权内容.

快速回复 返回顶部 返回列表