找回密码

蓝光电影网

查看: 96|回复: 1

[动画] 美食总动员/五星级大鼠 Ratatouille.2007.1080p.BluRay.x264.TrueHD.7.1.Atmos-SWTYBLZ 12.93GB

[复制链接]

 成长值: 1345

发表于 5 天前 | 显示全部楼层 |阅读模式
美食总动员/五星级大鼠 Ratatouille.2007.1080p.BluRay.x264.TrueHD.7.1.Atmos-SWTYBLZ 12.93GB-1.png

译  名 美食总动员 / 五星级大鼠(港) / 小鼠大厨 / 料理鼠王(台) / 蔬菜杂烩
片  名 Ratatouille
年  代 2007
产  地 美国
类  别 喜剧 / 动画 / 奇幻
语  言 英语 / 法语
上映日期 2007-06-29(美国) / 2007-10-19(中国大陆)
IMDb评分  8.0/10 from 589266 users
IMDb链接  http://www.imdb.com/title/tt0382932
豆瓣评分 8.4/10 from 236163 users
豆瓣链接 https://movie.douban.com/subject/1793491/
片  长 111 分钟
导  演 Brad Bird / Jan Pinkava
编  剧 Brad Bird / Jan Pinkava
主  演 Patton Oswalt
       Peter O'Toole
       Brad Garrett
       Ian Holm
       Lou Romano
       Brian Dennehy
       Peter Sohn
       Janeane Garofalo


标  签 动画 | 美国 | 喜剧 | pixar | 动画片 | 美国电影 | 2007 | 皮克斯

简  介  

  小老鼠雷米在嗅觉方面有着无与伦比的天赋,不想过与垃圾堆为伴的生活,心怀成为五星大厨的梦想。
  一个偶然的机会,他认识了古斯特餐厅的学徒林奎尼,这个倒霉的学徒生性害羞,在厨艺上更是没有什么天赋,并且遭到餐厅大厨的排挤,即将被解雇。这一人一鼠结成了奇特的联盟:雷米奉献自己极富创造力的大脑。操作林奎尼前台“表演”。
  在雷米的帮助下,林奎尼不但成为新的“天才厨师”,获得了美女同事的爱情,还挫败了大厨的阴谋,成为古斯特餐厅的合法继承人。突如起来的成功让林奎尼有些不知所措,想摆脱自己的傀儡身份,把雷米赶出了厨房。
  古斯特餐厅的成功,引起了苛刻的美食评论家科隆的注意,准备一尝林奎尼的手艺,重新为餐厅评定星级;而不甘失败的前大厨,蠢蠢欲动,想要找到林奎尼一夜成名的秘密。失去了雷米,林奎尼该如何面对这些问题……

获奖情况  

  第80届奥斯卡金像奖(2008)
  最佳原创剧本(提名) 简·皮克瓦 / 布拉德·伯德
  最佳动画长片 布拉德·伯德
  最佳混音(提名) 兰迪·汤姆 / Doc Kane / 迈克尔·斯曼内科
  最佳音效剪辑(提名) 兰迪·汤姆 / 迈克尔·席维斯
  最佳原创配乐(提名) 迈克·吉亚奇诺

  第61届英国电影学院奖(2008)
  电影奖 最佳动画片 布拉德·伯德

  第35届动画安妮奖(2008)
  最佳动画长片
  最佳导演 布拉德·伯德
  最佳编剧 布拉德·伯德
  最佳配音 伊安·霍姆
  最佳配音(提名) 詹妮安·加罗法洛 / 帕顿·奥斯瓦尔特
  最佳配乐 迈克·吉亚奇诺
  最佳分镜 泰德·马托特
  最佳艺术指导 哈雷·杰斯普
  最佳动画角色(提名) Michal Makarewicz
  最佳角色设计 Carter Goodrich
  最佳动画效果(提名) Gary Bruins / Jon Reisch

  第8届美国电影学会奖(2007)
  年度佳片
  1. Video
  2. ID                                       : 1
  3. Format                                   : AVC
  4. Format/Info                              : Advanced Video Codec
  5. Format profile                           : <a href="/cdn-cgi/l/email-protection" class="__cf_email__" data-cfemail="bff7d6d8d7fff38b918e">[email protected]</a>
  6. Format settings                          : CABAC / 5 Ref Frames
  7. Format settings, CABAC                   : Yes
  8. Format settings, Reference frames        : 5 frames
  9. Codec ID                                 : V_MPEG4/ISO/AVC
  10. Duration                                 : 1 h 51 min
  11. Bit rate                                 : 8 569 kb/s
  12. Width                                    : 1 920 pixels
  13. Height                                   : 802 pixels
  14. Display aspect ratio                     : 2.40:1
  15. Frame rate mode                          : Constant
  16. Frame rate                               : 23.976 (24000/1001) FPS
  17. Color space                              : YUV
  18. Chroma subsampling                       : 4:2:0
  19. Bit depth                                : 8 bits
  20. Scan type                                : Progressive
  21. Bits/(Pixel*Frame)                       : 0.232
  22. Stream size                              : 6.65 GiB (51%)
  23. Title                                    : Ratatouille.2007.1080p.BluRay.x264.TrueHD.7.1.Atmos-SWTYBLZ
  24. Writing library                          : x264 core 157 r2935 545de2f
  25. Encoding settings                        : cabac=1 / ref=5 / deblock=1:1:1 / analyse=0x3:0x133 / me=umh / subme=10 / psy=1 / psy_rd=0.40:0.00 / mixed_ref=1 / me_range=48 / chroma_me=1 / trellis=2 / 8x8dct=1 / cqm=0 / deadzone=21,11 / fast_pskip=1 / chroma_qp_offset=-2 / threads=25 / lookahead_threads=6 / sliced_threads=0 / nr=0 / decimate=0 / interlaced=0 / bluray_compat=0 / constrained_intra=0 / bframes=10 / b_pyramid=2 / b_adapt=2 / b_bias=0 / direct=3 / weightb=1 / open_gop=0 / weightp=2 / keyint=250 / keyint_min=23 / scenecut=40 / intra_refresh=0 / rc_lookahead=60 / rc=crf / mbtree=1 / crf=10.0 / qcomp=0.60 / qpmin=0 / qpmax=69 / qpstep=4 / ip_ratio=1.40 / aq=1:0.60
  26. Default                                  : Yes
  27. Forced                                   : No

  28. Audio #1
  29. ID                                       : 2
  30. Format                                   : MLP FBA 16-ch
  31. Format/Info                              : Meridian Lossless Packing FBA with 16-channel presentation
  32. Commercial name                          : Dolby TrueHD with Dolby Atmos
  33. Codec ID                                 : A_TRUEHD
  34. Duration                                 : 1 h 51 min
  35. Bit rate mode                            : Variable
  36. Bit rate                                 : 7 350 kb/s
  37. Maximum bit rate                         : 6 972 kb/s
  38. Channel(s)                               : 8 channels
  39. Channel layout                           : L R C LFE Ls Rs Lb Rb
  40. Sampling rate                            : 48.0 kHz
  41. Frame rate                               : 1 200.000 FPS (40 SPF)
  42. Compression mode                         : Lossless
  43. Stream size                              : 5.70 GiB (44%)
  44. Title                                    : Ratatouille.2007.1080p.BluRay.x264.TrueHD.7.1.Atmos-SWTYBLZ
  45. Language                                 : English
  46. Default                                  : Yes
  47. Forced                                   : No
  48. Number of dynamic objects                : 13
  49. Bed channel count                        : 1 channel
  50. Bed channel configuration                : LFE

  51. Audio #2
  52. ID                                       : 3
  53. Format                                   : AC-3
  54. Format/Info                              : Audio Coding 3
  55. Commercial name                          : Dolby Digital
  56. Codec ID                                 : A_AC3
  57. Duration                                 : 1 h 51 min
  58. Bit rate mode                            : Constant
  59. Bit rate                                 : 640 kb/s
  60. Channel(s)                               : 6 channels
  61. Channel layout                           : L R C LFE Ls Rs
  62. Sampling rate                            : 48.0 kHz
  63. Frame rate                               : 31.250 FPS (1536 SPF)
  64. Bit depth                                : 16 bits
  65. Compression mode                         : Lossy
  66. Stream size                              : 509 MiB (4%)
  67. Title                                    : Ratatouille.2007.1080p.BluRay.x264.TrueHD.7.1.Atmos-SWTYBLZ
  68. Language                                 : English
  69. Service kind                             : Complete Main
  70. Default                                  : No
  71. Forced                                   : No

  72. Text #1
  73. ID                                       : 4
  74. Format                                   : UTF-8
  75. Codec ID                                 : S_TEXT/UTF8
  76. Codec ID/Info                            : UTF-8 Plain Text
  77. Duration                                 : 1 h 42 min
  78. Bit rate                                 : 64 b/s
  79. Count of elements                        : 1328
  80. Stream size                              : 48.3 KiB (0%)
  81. Title                                    : English-SRT
  82. Language                                 : English
  83. Default                                  : Yes
  84. Forced                                   : No

  85. Text #2
  86. ID                                       : 5
  87. Format                                   : PGS
  88. Muxing mode                              : zlib
  89. Codec ID                                 : S_HDMV/PGS
  90. Codec ID/Info                            : Picture based subtitle format used on BDs/HD-DVDs
  91. Duration                                 : 1 h 42 min
  92. Bit rate                                 : 45.2 kb/s
  93. Count of elements                        : 3180
  94. Stream size                              : 33.0 MiB (0%)
  95. Title                                    : English-PGS
  96. Language                                 : English
  97. Default                                  : No
  98. Forced                                   : No

  99. Text #3
  100. ID                                       : 6
  101. Format                                   : PGS
  102. Muxing mode                              : zlib
  103. Codec ID                                 : S_HDMV/PGS
  104. Codec ID/Info                            : Picture based subtitle format used on BDs/HD-DVDs
  105. Duration                                 : 1 h 42 min
  106. Bit rate                                 : 39.8 kb/s
  107. Count of elements                        : 2600
  108. Stream size                              : 29.0 MiB (0%)
  109. Title                                    : French-PGS
  110. Language                                 : French
  111. Default                                  : No
  112. Forced                                   : No

  113. Text #4
  114. ID                                       : 7
  115. Format                                   : PGS
  116. Muxing mode                              : zlib
  117. Codec ID                                 : S_HDMV/PGS
  118. Codec ID/Info                            : Picture based subtitle format used on BDs/HD-DVDs
  119. Duration                                 : 1 h 42 min
  120. Bit rate                                 : 39.2 kb/s
  121. Count of elements                        : 2604
  122. Stream size                              : 28.6 MiB (0%)
  123. Title                                    : Spanish-PGS
  124. Language                                 : Spanish
  125. Default                                  : No
  126. Forced                                   : No

  127. Menu
  128. 00:00:00.000                             : en:Chapter 01
  129. 00:01:16.701                             : en:Chapter 02
  130. 00:06:30.223                             : en:Chapter 03
  131. 00:09:23.729                             : en:Chapter 04
  132. 00:10:58.532                             : en:Chapter 05
  133. 00:13:31.519                             : en:Chapter 06
  134. 00:17:40.851                             : en:Chapter 07
  135. 00:19:38.343                             : en:Chapter 08
  136. 00:24:49.154                             : en:Chapter 09
  137. 00:28:56.067                             : en:Chapter 10
  138. 00:33:05.775                             : en:Chapter 11
  139. 00:38:14.250                             : en:Chapter 12
  140. 00:40:33.722                             : en:Chapter 13
  141. 00:44:12.066                             : en:Chapter 14
  142. 00:47:00.108                             : en:Chapter 15
  143. 00:51:28.502                             : en:Chapter 16
  144. 00:57:03.002                             : en:Chapter 17
  145. 00:59:33.152                             : en:Chapter 18
  146. 01:00:54.359                             : en:Chapter 19
  147. 01:07:20.578                             : en:Chapter 20
  148. 01:11:26.490                             : en:Chapter 21
  149. 01:15:29.066                             : en:Chapter 22
  150. 01:19:25.927                             : en:Chapter 23
  151. 01:23:30.964                             : en:Chapter 24
  152. 01:25:35.296                             : en:Chapter 25
  153. 01:28:19.168                             : en:Chapter 26
  154. 01:32:39.595                             : en:Chapter 27
  155. 01:35:41.944                             : en:Chapter 28
  156. 01:38:50.341                             : en:Chapter 29
  157. 01:40:55.507                             : en:Chapter 30
  158. 01:42:59.798                             : en:Chapter 31
复制代码

美食总动员/五星级大鼠 Ratatouille.2007.1080p.BluRay.x264.TrueHD.7.1.Atmos-SWTYBLZ 12.93GB-2.png 美食总动员/五星级大鼠 Ratatouille.2007.1080p.BluRay.x264.TrueHD.7.1.Atmos-SWTYBLZ 12.93GB-3.png 美食总动员/五星级大鼠 Ratatouille.2007.1080p.BluRay.x264.TrueHD.7.1.Atmos-SWTYBLZ 12.93GB-4.png






开通VIP免费下载本站所有资源---点这里
新手必看:资源下载、资源播放、字幕使用、等常见问题---点这里
回复

使用道具 举报

发表于 前天 18:56 | 显示全部楼层
好东西啊!!!!
开通VIP免费下载本站所有资源---点这里
新手必看:资源下载、资源播放、字幕使用、等常见问题---点这里
回复

使用道具 举报

懒得打字嘛,点击右侧快捷回复 【右侧内容,后台自定义】
您需要登录后才可以回帖 登录 | 立即加入

本版积分规则

现在加入蓝光电影网,注册一个账号

QQ| 手机版|小黑屋| 蓝光电影网 |网站地图

Copyright © 2015-2019 Comsenz Inc.  Template by 蓝光电影网 All Rights Reserved.

Powered by 蓝光电影网 X3.4

特别声明:本站所有资源均由网上收集而来,版权归原影音公司所有,如果侵犯了你的权益,请通知我们,我们会及时删除侵权内容.

快速回复 返回顶部 返回列表