找回密码

蓝光电影网

查看: 54|回复: 1

[纪录] 纽波特音乐节 Festival.1967.1080p.BluRay.x264-DEV0 7.65GB

[复制链接]

 成长值: 1345

发表于 5 天前 | 显示全部楼层 |阅读模式
纽波特音乐节 Festival.1967.1080p.BluRay.x264-DEV0 7.65GB-1.png

译  名 纽波特音乐节
片  名 Festival
年  代 1967
产  地 美国
类  别 纪录片 / 音乐
语  言 英语
上映日期 1967-10-23
IMDb评分  7.6/10 from 398 users
IMDb链接  http://www.imdb.com/title/tt0061658
豆瓣评分 0/10 from 0 users
豆瓣链接 https://movie.douban.com/subject/1861859/
片  长 95 分钟
导  演 默里·勒纳 Murray Lerner
编  剧 默里·勒纳 Murray Lerner
主  演 琼·贝兹 Joan Baez
       Horton Barker
       Fiddler Beers
       西奥多·比凯尔 Theodore Bikel
       Mike Bloomfield
       Paul Butterfield
       朱迪·柯林斯 Judy Collins
       Cousin Emmy
       多诺万 Donovan
       鲍勃·迪伦 Bob Dylan


标  签 纪录片 | CC | 音乐 | 美國 | 美国电影 | 现场 | Documentary | 迪伦

简  介  

  Murry Lerner's film "Festival"is a cinematic  synthesis of four Newport Folk Festivals that depicts the crucial years of transition for the art of folk music.Performers range from 60's folk legends Bob Dylan and Joan Baez to country artists like Johnny Cash to traditional American folk artists such as the Georgia Sea Island Singers.The range is also from the huge-priced professionals like Peter,Paul and Mary to the authentic folk dignity of Son House and Mississippi John Hurt.Joan Baez,Donovan and Judy Collins are all on view,as are Pete Seeger, the Ed Young Fife & Drum Corps.

获奖情况  

  第40届奥斯卡金像奖(1968)
  最佳纪录长片(提名) 默里·勒纳
  1. Video
  2. ID                                       : 1
  3. Format                                   : AVC
  4. Format/Info                              : Advanced Video Codec
  5. Format profile                           : <a href="/cdn-cgi/l/email-protection" class="__cf_email__" data-cfemail="430b2a242b030f776d72">[email protected]</a>
  6. Format settings                          : CABAC / 4 Ref Frames
  7. Format settings, CABAC                   : Yes
  8. Format settings, RefFrames               : 4 frames
  9. Codec ID                                 : V_MPEG4/ISO/AVC
  10. Duration                                 : 1 h 38 min
  11. Bit rate                                 : 10.4 Mb/s
  12. Width                                    : 1 440 pixels
  13. Height                                   : 1 080 pixels
  14. Display aspect ratio                     : 4:3
  15. Frame rate mode                          : Constant
  16. Frame rate                               : 23.976 (24000/1001) FPS
  17. Color space                              : YUV
  18. Chroma subsampling                       : 4:2:0
  19. Bit depth                                : 8 bits
  20. Scan type                                : Progressive
  21. Bits/(Pixel*Frame)                       : 0.280
  22. Stream size                              : 7.16 GiB (94%)
  23. Writing library                          : x264 core 155 r2893 b00bcaf
  24. Encoding settings                        : cabac=1 / ref=4 / deblock=1:-3:-3 / analyse=0x3:0x133 / me=umh / subme=9 / psy=1 / psy_rd=1.00:0.00 / mixed_ref=1 / me_range=16 / chroma_me=1 / trellis=2 / 8x8dct=1 / cqm=0 / deadzone=21,11 / fast_pskip=0 / chroma_qp_offset=-2 / threads=24 / lookahead_threads=2 / sliced_threads=0 / nr=0 / decimate=1 / interlaced=0 / bluray_compat=0 / constrained_intra=0 / bframes=3 / b_pyramid=2 / b_adapt=1 / b_bias=0 / direct=3 / weightb=1 / open_gop=0 / weightp=2 / keyint=250 / keyint_min=23 / scenecut=40 / intra_refresh=0 / rc_lookahead=50 / rc=2pass / mbtree=1 / bitrate=10443 / ratetol=1.0 / qcomp=0.60 / qpmin=0 / qpmax=69 / qpstep=4 / cplxblur=20.0 / qblur=0.5 / ip_ratio=1.40 / aq=1:1.00
  25. Language                                 : English
  26. Default                                  : Yes
  27. Forced                                   : No

  28. Audio
  29. ID                                       : 2
  30. Format                                   : FLAC
  31. Format/Info                              : Free Lossless Audio Codec
  32. Codec ID                                 : A_FLAC
  33. Duration                                 : 1 h 38 min
  34. Bit rate mode                            : Variable
  35. Bit rate                                 : 710 kb/s
  36. Channel(s)                               : 1 channel
  37. Channel positions                        : Front: C
  38. Sampling rate                            : 48.0 kHz
  39. Frame rate                               : 11.719 FPS (4096 SPF)
  40. Bit depth                                : 24 bits
  41. Stream size                              : 499 MiB (6%)
  42. Writing library                          : libFLAC 1.2.1 (UTC 2007-09-17)
  43. Language                                 : English
  44. Default                                  : Yes
  45. Forced                                   : No

  46. Text
  47. ID                                       : 3
  48. Format                                   : UTF-8
  49. Codec ID                                 : S_TEXT/UTF8
  50. Codec ID/Info                            : UTF-8 Plain Text
  51. Duration                                 : 1 h 34 min
  52. Bit rate                                 : 3 b/s
  53. Count of elements                        : 84
  54. Stream size                              : 2.60 KiB (0%)
  55. Title                                    : forced
  56. Language                                 : English
  57. Default                                  : Yes
  58. Forced                                   : Yes

  59. Menu
  60. 00:00:00.000                             : en:00:00:00.000
  61. 00:03:06.561                             : en:00:03:06.561
  62. 00:08:36.808                             : en:00:08:36.808
  63. 00:15:16.457                             : en:00:15:16.457
  64. 00:20:26.475                             : en:00:20:26.475
  65. 00:23:23.861                             : en:00:23:23.861
  66. 00:28:22.534                             : en:00:28:22.534
  67. 00:33:34.179                             : en:00:33:34.179
  68. 00:37:59.444                             : en:00:37:59.444
  69. 00:46:03.135                             : en:00:46:03.135
  70. 00:49:38.267                             : en:00:49:38.267
  71. 00:53:38.924                             : en:00:53:38.924
  72. 01:00:12.150                             : en:01:00:12.150
  73. 01:07:51.109                             : en:01:07:51.109
  74. 01:16:47.478                             : en:01:16:47.478
  75. 01:19:04.740                             : en:01:19:04.740
  76. 01:21:11.825                             : en:01:21:11.825
  77. 01:27:32.205                             : en:01:27:32.205
  78. 01:34:42.927                             : en:01:34:42.927
复制代码

纽波特音乐节 Festival.1967.1080p.BluRay.x264-DEV0 7.65GB-2.png






开通VIP免费下载本站所有资源---点这里
新手必看:资源下载、资源播放、字幕使用、等常见问题---点这里
回复

使用道具 举报

发表于 3 天前 | 显示全部楼层
楼主发贴辛苦了,谢谢楼主分享!我觉得蓝光电影网是注册对了!
开通VIP免费下载本站所有资源---点这里
新手必看:资源下载、资源播放、字幕使用、等常见问题---点这里
回复 支持 反对

使用道具 举报

懒得打字嘛,点击右侧快捷回复 【右侧内容,后台自定义】
您需要登录后才可以回帖 登录 | 立即加入

本版积分规则

现在加入蓝光电影网,注册一个账号

QQ| 手机版|小黑屋| 蓝光电影网 |网站地图

Copyright © 2015-2019 Comsenz Inc.  Template by 蓝光电影网 All Rights Reserved.

Powered by 蓝光电影网 X3.4

特别声明:本站所有资源均由网上收集而来,版权归原影音公司所有,如果侵犯了你的权益,请通知我们,我们会及时删除侵权内容.

快速回复 返回顶部 返回列表