找回密码

蓝光电影网

查看: 76|回复: 0

[纪录] 为一代人而战:UFC20周年 Fighting.for.a.Generation.20.Years.of.the.UFC.2013.1080p.BluRay.x264-WaLMaRT 5.47GB

[复制链接]

 成长值: 1420

发表于 2019-9-11 15:07:21 | 显示全部楼层 |阅读模式
为一代人而战:UFC20周年 Fighting.for.a.Generation.20.Years.of.the.UFC.2013.1080p.BluRay.x264-WaLMaRT 5.47GB-1.png

译  名 为一代人而战:UFC20周年
片  名 Fighting for a Generation: 20 Years of the UFC
年  代 2013
产  地 美国
类  别 纪录片 / 运动
语  言 英语
上映日期 2013-11-05(美国)
IMDb评分  8.0/10 from 188 users
IMDb链接  http://www.imdb.com/title/tt3320550
豆瓣评分 0/10 from 0 users
豆瓣链接 https://movie.douban.com/subject/26341310/
片  长 90分钟
导  演 Adam Condal / 亚当·戈德堡 Adam Goldberg
主  演 John Lewis


标  签 纪录片 | UFC | 体育 | 美国 | 2013 | 综合格斗 | MMA | 电影

简  介  

  Fighting for a Generation: 20 Years of the UFC is an oral and visual documentary on the two decade rise of the Ultimate Fighting Championship. Over 60 interviews were conducted over a 4 month period to let the viewer truly understand how the UFC has become what it is today. From the early days, dealing with political pressure and financial hardships to successfully building a worldwide brand, the UFC has gone through struggles that no other sports franchise has faced only to come out on the winning end. With the 20 year anniversary of UFC 1 occurring in November 2013, the UFC wanted to celebrate in a way that would give the fans an inside look at the meteoric rise of one of the top sports franchises in the world.
  1. Video
  2. ID                                       : 1
  3. Format                                   : AVC
  4. Format/Info                              : Advanced Video Codec
  5. Format profile                           : <a href="/cdn-cgi/l/email-protection" class="__cf_email__" data-cfemail="93dbfaf4fbd3dfa7bda2">High@L4.1</a>
  6. Format settings, CABAC                   : Yes
  7. Format settings, ReFrames                : 4 frames
  8. Codec ID                                 : V_MPEG4/ISO/AVC
  9. Duration                                 : 1h 30mn
  10. Bit rate                                 : 8 343 Kbps
  11. Width                                    : 1 920 pixels
  12. Height                                   : 1 080 pixels
  13. Display aspect ratio                     : 16:9
  14. Frame rate mode                          : Constant
  15. Frame rate                               : 23.976 fps
  16. Color space                              : YUV
  17. Chroma subsampling                       : 4:2:0
  18. Bit depth                                : 8 bits
  19. Scan type                                : Progressive
  20. Bits/(Pixel*Frame)                       : 0.168
  21. Stream size                              : 5.16 GiB (94%)
  22. Writing library                          : x264 core 148 r2597 e86f3a1
  23. Encoding settings                        : cabac=1 / ref=4 / deblock=1:-1:-1 / analyse=0x3:0x133 / me=umh / subme=7 / psy=1 / psy_rd=1.00:0.00 / mixed_ref=1 / me_range=16 / chroma_me=1 / trellis=1 / 8x8dct=1 / cqm=0 / deadzone=21,11 / fast_pskip=0 / chroma_qp_offset=-2 / threads=9 / lookahead_threads=1 / sliced_threads=0 / nr=0 / decimate=1 / interlaced=0 / bluray_compat=0 / constrained_intra=0 / bframes=3 / b_pyramid=2 / b_adapt=2 / b_bias=0 / direct=3 / weightb=1 / open_gop=0 / weightp=2 / keyint=240 / keyint_min=23 / scenecut=40 / intra_refresh=0 / rc_lookahead=50 / rc=2pass / mbtree=0 / bitrate=8343 / ratetol=1.0 / qcomp=0.60 / qpmin=10 / qpmax=51 / qpstep=4 / cplxblur=20.0 / qblur=0.5 / vbv_maxrate=62500 / vbv_bufsize=78125 / nal_hrd=none / filler=0 / ip_ratio=1.40 / pb_ratio=1.30 / aq=1:1.00
  24. Default                                  : Yes
  25. Forced                                   : No

  26. Audio
  27. ID                                       : 2
  28. Format                                   : AC-3
  29. Format/Info                              : Audio Coding 3
  30. Mode extension                           : CM (complete main)
  31. Format settings, Endianness              : Big
  32. Codec ID                                 : A_AC3
  33. Duration                                 : 1h 30mn
  34. Bit rate mode                            : Constant
  35. Bit rate                                 : 320 Kbps
  36. Channel(s)                               : 2 channels
  37. Channel positions                        : Front: L R
  38. Sampling rate                            : 48.0 KHz
  39. Compression mode                         : Lossy
  40. Stream size                              : 207 MiB (4%)
  41. Language                                 : English
  42. Default                                  : Yes
  43. Forced                                   : No

  44. Menu
  45. 00:00:00.000                             : en:00:00:00.000
  46. 00:02:02.522                             : en:00:02:02.522
  47. 00:13:33.646                             : en:00:13:33.646
  48. 00:21:21.647                             : en:00:21:21.647
  49. 00:33:09.554                             : en:00:33:09.554
  50. 00:41:37.195                             : en:00:41:37.195
  51. 00:50:44.875                             : en:00:50:44.875
  52. 01:03:29.372                             : en:01:03:29.372
  53. 01:09:35.304                             : en:01:09:35.304
  54. 01:12:58.874                             : en:01:12:58.874
  55. 01:16:07.296                             : en:01:16:07.296
  56. 01:20:39.902                             : en:01:20:39.902
  57. 01:22:12.261                             : en:01:22:12.261
  58. 01:25:18.313                             : en:01:25:18.313
  59. 01:30:09.237                             : en:01:30:09.237
复制代码

为一代人而战:UFC20周年 Fighting.for.a.Generation.20.Years.of.the.UFC.2013.1080p.BluRay.x264-WaLMaRT 5.47GB-2.png






开通VIP免费下载本站所有资源---点这里
新手必看:资源下载常见问题---点这里
回复

使用道具 举报

懒得打字嘛,点击右侧快捷回复 【右侧内容,后台自定义】
您需要登录后才可以回帖 登录 | 立即加入

本版积分规则

现在加入蓝光电影网,注册一个账号

QQ| 手机版|小黑屋| 蓝光电影网 |网站地图

Copyright © 2015-2019 Comsenz Inc.  Template by 蓝光电影网 All Rights Reserved.

Powered by 蓝光电影网 X3.4

特别声明:本站所有资源均由网上收集而来,版权归原影音公司所有,如果侵犯了你的权益,请通知我们,我们会及时删除侵权内容.

快速回复 返回顶部 返回列表