找回密码

蓝光电影网

查看: 37|回复: 1

[其他] 扬科叔叔 Uncle.Yanco.1967.1080p.BluRay.x264-BiPOLAR 1.09GB

[复制链接]

 成长值: 1420

发表于 2019-9-11 15:05:46 | 显示全部楼层 |阅读模式
扬科叔叔 Uncle.Yanco.1967.1080p.BluRay.x264-BiPOLAR 1.09GB-1.png

译  名 扬科叔叔 / Uncle Janco
片  名 Oncle Yanco
年  代 1967
产  地 美国 / 法国
类  别 短片
语  言 英语 / 法语
上映日期 1967(美国) / 2001-10-29(伊赫拉瓦电影节)
IMDb评分  7.3/10 from 632 users
IMDb链接  http://www.imdb.com/title/tt0179389
豆瓣评分 8.1/10 from 375 users
豆瓣链接 https://movie.douban.com/subject/1763688/
片  长 18分钟
导  演 阿涅斯·瓦尔达 Agnès Varda
编  剧 阿涅斯·瓦尔达 Agnès Varda
主  演 Jean Varda
       Tom Luddy
       阿涅斯·瓦尔达 Agnès Varda


标  签 短片 | 法国 | 阿涅斯·瓦尔达 | 纪录片 | AgnèsVarda | Agnès_Varda | 1967 | 1960s

简  介  

  Agnes Varda went to San Francisco to promote her film "Les Creatures". Tom Luddy on Pacific Film Archives told her : "There is a man called Varda on a boat in Sausalito. Are you related?". "I dont know, lets find out" Agnes Varda replied.
  
  They went there on a thursday and met this Yanco (Jean Varda) who was the cousin of her fathers. So she made this little movie about this old man, living on a boat with his hippie friends, making a living as a painter.
  
  Altogether a nice little film, a typical Varda movie.
  1. Video
  2. ID : 1
  3. Format : AVC
  4. Format/Info : Advanced Video Codec
  5. Format profile : <a href="/cdn-cgi/l/email-protection" class="__cf_email__" data-cfemail="a6eecfc1cee6ea928897">High@L4.1</a>
  6. Format settings : CABAC / 4 Ref Frames
  7. Format settings, CABAC : Yes
  8. Format settings, RefFrames : 4 frames
  9. Codec ID : V_MPEG4/ISO/AVC
  10. Duration : 17 min 59 s
  11. Bit rate : 8 296 kb/s
  12. Width : 1 792 pixels
  13. Height : 1 080 pixels
  14. Display aspect ratio : 5:3
  15. Frame rate mode : Constant
  16. Frame rate : 25.000 FPS
  17. Color space : YUV
  18. Chroma subsampling : 4:2:0
  19. Bit depth : 8 bits
  20. Scan type : Progressive
  21. Bits/(Pixel*Frame) : 0.171
  22. Stream size : 1.04 GiB (96%)
  23. Writing library : x264 core 155 r2901 7d0ff22
  24. Encoding settings : cabac=1 / ref=4 / deblock=1:-3:-3 / analyse=0x3:0x133 / me=umh / subme=9 / psy=1 / psy_rd=1.00:0.00 / mixed_ref=1 / me_range=16 / chroma_me=1 / trellis=2 / 8x8dct=1 / cqm=0 / deadzone=21,11 / fast_pskip=0 / chroma_qp_offset=-2 / threads=34 / lookahead_threads=2 / sliced_threads=0 / nr=0 / decimate=1 / interlaced=0 / bluray_compat=0 / constrained_intra=0 / bframes=3 / b_pyramid=2 / b_adapt=1 / b_bias=0 / direct=3 / weightb=1 / open_gop=0 / weightp=2 / keyint=250 / keyint_min=25 / scenecut=40 / intra_refresh=0 / rc_lookahead=50 / rc=2pass / mbtree=1 / bitrate=8296 / ratetol=1.0 / qcomp=0.60 / qpmin=0 / qpmax=69 / qpstep=4 / cplxblur=20.0 / qblur=0.5 / ip_ratio=1.40 / aq=1:1.00
  25. Language : English
  26. Default : Yes
  27. Forced : No

  28. Audio
  29. ID : 2
  30. Format : FLAC
  31. Format/Info : Free Lossless Audio Codec
  32. Codec ID : A_FLAC
  33. Duration : 17 min 59 s
  34. Bit rate mode : Variable
  35. Bit rate : 372 kb/s
  36. Channel(s) : 2 channels
  37. Channel positions : Front: L R
  38. Sampling rate : 48.0 kHz
  39. Frame rate : 11.719 FPS (4096 SPF)
  40. Bit depth : 16 bits
  41. Stream size : 47.9 MiB (4%)
  42. Writing library : libFLAC 1.2.1 (UTC 2007-09-17)
  43. Default : Yes
  44. Forced : No

  45. Text
  46. ID : 3
  47. Format : UTF-8
  48. Codec ID : S_TEXT/UTF8
  49. Codec ID/Info : UTF-8 Plain Text
  50. Duration : 17 min 32 s
  51. Bit rate : 80 b/s
  52. Count of elements : 242
  53. Stream size : 10.4 KiB (0%)
  54. Title : English
  55. Language : English
  56. Default : Yes
  57. Forced : Yes
复制代码

扬科叔叔 Uncle.Yanco.1967.1080p.BluRay.x264-BiPOLAR 1.09GB-2.png






开通VIP免费下载本站所有资源---点这里
新手必看:资源下载常见问题---点这里
回复

使用道具 举报

发表于 2019-9-12 23:55:48 | 显示全部楼层
希望可以下载了
开通VIP免费下载本站所有资源---点这里
新手必看:资源下载常见问题---点这里
回复 支持 反对

使用道具 举报

懒得打字嘛,点击右侧快捷回复 【右侧内容,后台自定义】
您需要登录后才可以回帖 登录 | 立即加入

本版积分规则

现在加入蓝光电影网,注册一个账号

QQ| 手机版|小黑屋| 蓝光电影网 |网站地图

Copyright © 2015-2019 Comsenz Inc.  Template by 蓝光电影网 All Rights Reserved.

Powered by 蓝光电影网 X3.4

特别声明:本站所有资源均由网上收集而来,版权归原影音公司所有,如果侵犯了你的权益,请通知我们,我们会及时删除侵权内容.

快速回复 返回顶部 返回列表