找回密码

蓝光电影网

查看: 49|回复: 1

[纪录] 美丽噪音 Beautiful.Noise.2014.DOCU.1080p.BluRay.x264-DEV0 5.46GB

[复制链接]

 成长值: 1420

发表于 2019-9-11 15:04:44 | 显示全部楼层 |阅读模式
美丽噪音 Beautiful.Noise.2014.DOCU.1080p.BluRay.x264-DEV0 5.46GB-1.png

译  名 美丽噪音
片  名 Beautiful Noise
年  代 2014
产  地 美国
类  别 纪录片 / 音乐
语  言 英语
上映日期 2014-05-31(西雅图电影节)
IMDb评分  6.5/10 from 373 users
IMDb链接  http://www.imdb.com/title/tt1079956
豆瓣评分 8.7/10 from 525 users
豆瓣链接 https://movie.douban.com/subject/2287522/
片  长 90分钟
导  演 Eric Green
编  剧 Eric Green
主  演 Kevin Shields
       罗宾·格思里 Robin Guthrie
       Brad Laner
       Ulrich Schnauss
       Debbie Googe
       Simon Raymonde
       比利·考根 Billy Corgan
       Emma Anderson
       Robert Smith
       Mark Gardener
       Neil Halstead
       Jim Reid


标  签 纪录片 | 音乐 | Shoegaze | 美国 | 2014 | Documentary | 摇滚 | 紀錄片

简  介  

  BEAUTIFUL NOISE is an in-depth exploration of a music movement in the late twentieth century, a fascinating period when some innovative musicians mixed guitar noise into conventional pop song structures while maintaining a philosophy of letting the music speak for itself. Although many of the people interviewed are notoriously press shy they have opened up about their music and experiences from over 20 years ago, how they defied the rules and became sonic innovators that have inspired so many.
  - Written by Anonymous
  1. Video
  2. ID                                       : 1
  3. Format                                   : AVC
  4. Format/Info                              : Advanced Video Codec
  5. Format profile                           : <a href="/cdn-cgi/l/email-protection" class="__cf_email__" data-cfemail="fcb4959b94bcb0c8d2cd">High@L4.1</a>
  6. Format settings                          : CABAC / 4 Ref Frames
  7. Format settings, CABAC                   : Yes
  8. Format settings, Reference frames        : 4 frames
  9. Codec ID                                 : V_MPEG4/ISO/AVC
  10. Duration                                 : 1 h 26 min
  11. Bit rate                                 : 8 617 kb/s
  12. Width                                    : 1 920 pixels
  13. Height                                   : 1 080 pixels
  14. Display aspect ratio                     : 16:9
  15. Frame rate mode                          : Constant
  16. Frame rate                               : 29.970 (30000/1001) FPS
  17. Color space                              : YUV
  18. Chroma subsampling                       : 4:2:0
  19. Bit depth                                : 8 bits
  20. Scan type                                : Progressive
  21. Bits/(Pixel*Frame)                       : 0.139
  22. Stream size                              : 5.19 GiB (95%)
  23. Writing library                          : x264 core 146 r2538 121396c
  24. Encoding settings                        : cabac=1 / ref=4 / deblock=1:0:0 / analyse=0x3:0x133 / me=umh / subme=7 / psy=1 / psy_rd=1.00:0.00 / mixed_ref=1 / me_range=16 / chroma_me=1 / trellis=1 / 8x8dct=1 / cqm=0 / deadzone=21,11 / fast_pskip=0 / chroma_qp_offset=-2 / threads=48 / lookahead_threads=8 / sliced_threads=0 / nr=0 / decimate=1 / interlaced=0 / bluray_compat=0 / constrained_intra=0 / bframes=3 / b_pyramid=2 / b_adapt=2 / b_bias=0 / direct=3 / weightb=1 / open_gop=0 / weightp=2 / keyint=300 / keyint_min=29 / scenecut=40 / intra_refresh=0 / rc_lookahead=50 / rc=2pass / mbtree=1 / bitrate=8617 / ratetol=1.0 / qcomp=0.60 / qpmin=0 / qpmax=69 / qpstep=4 / cplxblur=20.0 / qblur=0.5 / ip_ratio=1.40 / aq=1:1.00
  25. Language                                 : English
  26. Default                                  : Yes
  27. Forced                                   : No

  28. Audio
  29. ID                                       : 2
  30. Format                                   : AC-3
  31. Format/Info                              : Audio Coding 3
  32. Commercial name                          : Dolby Digital
  33. Codec ID                                 : A_AC3
  34. Duration                                 : 1 h 26 min
  35. Bit rate mode                            : Constant
  36. Bit rate                                 : 448 kb/s
  37. Channel(s)                               : 6 channels
  38. Channel layout                           : L R C LFE Ls Rs
  39. Sampling rate                            : 48.0 kHz
  40. Frame rate                               : 31.250 FPS (1536 SPF)
  41. Bit depth                                : 16 bits
  42. Compression mode                         : Lossy
  43. Stream size                              : 276 MiB (5%)
  44. Language                                 : English
  45. Service kind                             : Complete Main
  46. Default                                  : Yes
  47. Forced                                   : No

  48. Menu
  49. 00:00:00.000                             : en:00:00:00.000
  50. 00:01:24.084                             : en:00:01:24.084
  51. 00:09:23.229                             : en:00:09:23.229
  52. 00:22:33.485                             : en:00:22:33.485
  53. 00:31:45.504                             : en:00:31:45.504
  54. 00:46:00.024                             : en:00:46:00.024
  55. 00:49:07.878                             : en:00:49:07.878
  56. 00:52:37.454                             : en:00:52:37.454
  57. 00:55:51.882                             : en:00:55:51.882
  58. 01:00:56.219                             : en:01:00:56.219
  59. 01:14:48.217                             : en:01:14:48.217
  60. 01:22:43.592                             : en:01:22:43.592
复制代码

美丽噪音 Beautiful.Noise.2014.DOCU.1080p.BluRay.x264-DEV0 5.46GB-2.png 美丽噪音 Beautiful.Noise.2014.DOCU.1080p.BluRay.x264-DEV0 5.46GB-3.png 美丽噪音 Beautiful.Noise.2014.DOCU.1080p.BluRay.x264-DEV0 5.46GB-4.png






开通VIP免费下载本站所有资源---点这里
新手必看:资源下载常见问题---点这里
回复

使用道具 举报

 成长值: 250

发表于 2019-9-12 19:39:23 | 显示全部楼层

楼主,我太崇拜你了!我想我是一天也不能离开蓝光电影网
开通VIP免费下载本站所有资源---点这里
新手必看:资源下载常见问题---点这里
回复 支持 反对

使用道具 举报

懒得打字嘛,点击右侧快捷回复 【右侧内容,后台自定义】
您需要登录后才可以回帖 登录 | 立即加入

本版积分规则

现在加入蓝光电影网,注册一个账号

QQ| 手机版|小黑屋| 蓝光电影网 |网站地图

Copyright © 2015-2019 Comsenz Inc.  Template by 蓝光电影网 All Rights Reserved.

Powered by 蓝光电影网 X3.4

特别声明:本站所有资源均由网上收集而来,版权归原影音公司所有,如果侵犯了你的权益,请通知我们,我们会及时删除侵权内容.

快速回复 返回顶部 返回列表