找回密码

蓝光电影网

查看: 114|回复: 3

[剧情] 新龙凤配/情归巴黎 Sabrina.1995.1080p.BluRay.x264.DD5.1-SbR 17.73GB

[复制链接]

 成长值: 1420

发表于 2019-9-11 15:03:49 | 显示全部楼层 |阅读模式
新龙凤配/情归巴黎 Sabrina.1995.1080p.BluRay.x264.DD5.1-SbR 17.73GB-1.png

译  名 新龙凤配 / 情归巴黎 / 萨布里娜
片  名 Sabrina
年  代 1995
产  地 德国 / 美国
类  别 剧情 / 喜剧 / 爱情
语  言 英语 / 法语
上映日期 1995-12-15
IMDb评分  6.3/10 from 34333 users
IMDb链接  http://www.imdb.com/title/tt0114319
豆瓣评分 7.3/10 from 5462 users
豆瓣链接 https://movie.douban.com/subject/1301221/
片  长 127 分钟
导  演 Sydney Pollack
编  剧 Barbara Benedek / David Rayfiel
主  演 Harrison Ford
       Julia Ormond
       Greg Kinnear
       Nancy Marchand
       John Wood


标  签 爱情 | 美国 | 美国电影 | HarrisonFord | 哈里森·福特 | 浪漫 | 灰姑娘 | Sabrina

简  介  

  Sabrina(Julia Ormond 朱莉娅·奥蒙德饰)是赖瑞毕家司机的女儿,从小她就暗恋二少爷David(Greg Kinnear 格雷格·金内尔饰)。外界对二少爷的评价可远远不及他的大哥Linus(Harrison Ford 哈里森·福特饰),人们赞许大少爷睿智冷静,富有商业头脑。二少爷不过是个游手好闲,只知道泡妞的花花公子罢了。
  可Sabrina才不理那些,她一心一意爱着David,但父亲却为此忧心忡忡,他托人将Sabrina送去巴黎深造,期待她能走出狭隘的小圈子,看到世界的辽阔。
  果然,从巴黎回来后,Sabrina一洗土气,举止大方,谈吐自如,女人味十足。David迅速拜倒在她的石榴裙下,甚至欲至未婚妻于不顾,这引起了家族的恐慌。Linus为此刻意接近Sabrina,希望能把她打发走,可情节的走向却开始逐渐脱离Linus的掌握……

获奖情况  

  第68届奥斯卡金像奖(1996)
  音乐/喜剧片最佳原创配乐(提名) 约翰·威廉姆斯
  最佳原创歌曲(提名) 阿兰·伯格曼 / 玛丽莲·伯格曼 / 约翰·威廉姆斯
  1. Video
  2. ID                                       : 1
  3. Format                                   : AVC
  4. Format/Info                              : Advanced Video Codec
  5. Format profile                           : <a href="/cdn-cgi/l/email-protection" class="__cf_email__" data-cfemail="c28aaba5aa828ef6ecf3">High@L4.1</a>
  6. Format settings                          : CABAC / 4 Ref Frames
  7. Format settings, CABAC                   : Yes
  8. Format settings, Reference frames        : 4 frames
  9. Codec ID                                 : V_MPEG4/ISO/AVC
  10. Duration                                 : 2 h 7 min
  11. Bit rate                                 : 19.5 Mb/s
  12. Width                                    : 1 920 pixels
  13. Height                                   : 1 080 pixels
  14. Display aspect ratio                     : 16:9
  15. Frame rate mode                          : Constant
  16. Frame rate                               : 23.976 (24000/1001) FPS
  17. Color space                              : YUV
  18. Chroma subsampling                       : 4:2:0
  19. Bit depth                                : 8 bits
  20. Scan type                                : Progressive
  21. Bits/(Pixel*Frame)                       : 0.392
  22. Stream size                              : 17.3 GiB (98%)
  23. Writing library                          : x264 core 148 r2721kMod 72d53ab
  24. Encoding settings                        : cabac=1 / ref=4 / deblock=1:-2:-2 / analyse=0x3:0x133 / me=umh / subme=11 / psy=1 / fade_compensate=0.00 / psy_rd=1.00:0.00 / mixed_ref=1 / me_range=32 / chroma_me=1 / trellis=2 / 8x8dct=1 / cqm=0 / deadzone=21,11 / fast_pskip=0 / chroma_qp_offset=-2 / threads=12 / lookahead_threads=3 / sliced_threads=0 / nr=0 / decimate=1 / interlaced=0 / bluray_compat=0 / constrained_intra=0 / fgo=0 / bframes=10 / b_pyramid=2 / b_adapt=2 / b_bias=0 / direct=3 / weightb=1 / open_gop=0 / weightp=2 / keyint=250 / keyint_min=23 / scenecut=40 / intra_refresh=0 / rc_lookahead=60 / rc=2pass / mbtree=0 / bitrate=19500 / ratetol=1.0 / qcomp=0.60 / qpmin=0 / qpmax=69 / qpstep=4 / cplxblur=20.0 / qblur=0.5 / vbv_maxrate=62500 / vbv_bufsize=78125 / nal_hrd=none / filler=0 / ip_ratio=1.30 / pb_ratio=1.30 / aq=1:0.80
  25. Language                                 : English
  26. Default                                  : Yes
  27. Forced                                   : No
  28. Color range                              : Limited
  29. Color primaries                          : BT.709
  30. Transfer characteristics                 : BT.709
  31. Matrix coefficients                      : BT.709

  32. Audio
  33. ID                                       : 2
  34. Format                                   : AC-3
  35. Format/Info                              : Audio Coding 3
  36. Commercial name                          : Dolby Digital
  37. Codec ID                                 : A_AC3
  38. Duration                                 : 2 h 7 min
  39. Bit rate mode                            : Constant
  40. Bit rate                                 : 448 kb/s
  41. Channel(s)                               : 6 channels
  42. Channel layout                           : L R C LFE Ls Rs
  43. Sampling rate                            : 48.0 kHz
  44. Frame rate                               : 31.250 FPS (1536 SPF)
  45. Bit depth                                : 16 bits
  46. Compression mode                         : Lossy
  47. Stream size                              : 408 MiB (2%)
  48. Title                                    : R1
  49. Language                                 : English
  50. Service kind                             : Complete Main
  51. Default                                  : Yes
  52. Forced                                   : No

  53. Text #1
  54. ID                                       : 3
  55. Format                                   : UTF-8
  56. Codec ID                                 : S_TEXT/UTF8
  57. Codec ID/Info                            : UTF-8 Plain Text
  58. Duration                                 : 2 h 5 min
  59. Bit rate                                 : 59 b/s
  60. Count of elements                        : 2080
  61. Stream size                              : 54.9 KiB (0%)
  62. Language                                 : English
  63. Default                                  : No
  64. Forced                                   : No

  65. Text #2
  66. ID                                       : 4
  67. Format                                   : UTF-8
  68. Codec ID                                 : S_TEXT/UTF8
  69. Codec ID/Info                            : UTF-8 Plain Text
  70. Duration                                 : 2 h 6 min
  71. Bit rate                                 : 61 b/s
  72. Count of elements                        : 2164
  73. Stream size                              : 56.9 KiB (0%)
  74. Title                                    : SDH
  75. Language                                 : English
  76. Default                                  : No
  77. Forced                                   : No

  78. Menu
  79. 00:00:00.000                             : en:Chapter 1
  80. 00:11:26.269                             : en:Chapter 2
  81. 00:21:52.186                             : en:Chapter 3
  82. 00:36:16.257                             : en:Chapter 4
  83. 00:50:35.950                             : en:Chapter 5
  84. 00:58:29.631                             : en:Chapter 6
  85. 01:08:38.990                             : en:Chapter 7
  86. 01:20:12.266                             : en:Chapter 8
  87. 01:31:08.088                             : en:Chapter 9
  88. 01:39:44.937                             : en:Chapter 10
  89. 01:48:29.920                             : en:Chapter 11
  90. 01:58:07.831                             : en:Chapter 12
复制代码

新龙凤配/情归巴黎 Sabrina.1995.1080p.BluRay.x264.DD5.1-SbR 17.73GB-2.png 新龙凤配/情归巴黎 Sabrina.1995.1080p.BluRay.x264.DD5.1-SbR 17.73GB-3.png 新龙凤配/情归巴黎 Sabrina.1995.1080p.BluRay.x264.DD5.1-SbR 17.73GB-4.png






开通VIP免费下载本站所有资源---点这里
新手必看:资源下载常见问题---点这里
回复

使用道具 举报

发表于 2019-9-11 15:40:28 | 显示全部楼层

这东西我收了!谢谢楼主!蓝光电影网真好!
开通VIP免费下载本站所有资源---点这里
新手必看:资源下载常见问题---点这里
回复 支持 反对

使用道具 举报

发表于 2019-9-13 10:35:02 | 显示全部楼层
哈里森。福特是驰名影坛的老戏骨,下了。
开通VIP免费下载本站所有资源---点这里
新手必看:资源下载常见问题---点这里
回复 支持 反对

使用道具 举报

发表于 7 天前 | 显示全部楼层
跟赫本的版本没法比啊!
开通VIP免费下载本站所有资源---点这里
新手必看:资源下载常见问题---点这里
回复 支持 反对

使用道具 举报

懒得打字嘛,点击右侧快捷回复 【右侧内容,后台自定义】
您需要登录后才可以回帖 登录 | 立即加入

本版积分规则

现在加入蓝光电影网,注册一个账号

QQ| 手机版|小黑屋| 蓝光电影网 |网站地图

Copyright © 2015-2019 Comsenz Inc.  Template by 蓝光电影网 All Rights Reserved.

Powered by 蓝光电影网 X3.4

特别声明:本站所有资源均由网上收集而来,版权归原影音公司所有,如果侵犯了你的权益,请通知我们,我们会及时删除侵权内容.

快速回复 返回顶部 返回列表