找回密码

蓝光电影网

查看: 58|回复: 0

[动画] 镜中的梦幻城 Inuyasha.The.Movie.2.Castle.Beyond.The.Looking.Glass.2002.JAPANESE.1080p.BluRay.x264-HANDJOB 8.65GB

[复制链接]

 成长值: 1420

发表于 2019-9-11 15:03:00 | 显示全部楼层 |阅读模式
镜中的梦幻城 Inuyasha.The.Movie.2.Castle.Beyond.The.Looking.Glass.2002.JAPANESE.1080p.BluRay.x264-HANDJOB 8.65GB-1.png

译  名 镜中的梦幻城
片  名 犬夜叉 鏡の中の夢幻城
年  代 2002
产  地 日本
类  别 喜剧 / 动作 / 爱情 / 动画
语  言 日语
上映日期 2002-12-21
IMDb评分  7.5/10 from 1641 users
IMDb链接  http://www.imdb.com/title/tt0366621
豆瓣评分 8.1/10 from 9391 users
豆瓣链接 https://movie.douban.com/subject/1464450/
片  长 99分钟
导  演 Toshiya Shinohara
编  剧 高桥留美子 Rumiko Takahashi
主  演 山口胜平 Kappei Yamaguchi
       雪野五月 Satsuki Yukino
       原田美枝子 Mieko Harada
       辻谷耕史 Koji Tsujitani
       渡辺久美子 Kumiko Watanabe
       日高法子 Noriko Hidaka
       矢島晶子 Akiko Yajima


标  签 犬夜叉 | 剧场版 | 动画 | 日本 | 高桥留美子 | 动漫 | 日本动画 | 日本动漫

简  介  

  在某个朔夜,犬夜叉一行和妖怪奈落展开最终决战。经过一番艰苦缠斗,他们终于消灭这个邪恶的妖怪,漫长的征战终于告一段落。戈薇短暂回到现代休整,随后再次和犬夜叉、七宝踏上寻找四魂玉碎片的旅程;法师弥勒的风穴消失,他返回寺庙拜祭父亲;珊瑚则和云母四处寻找流浪的弟弟琥珀。
  安宁的日子并未持续太久,获得自由的神乐在神无的的指引下,见到被封禁在生命之镜中的神久夜。五十年前,在神久夜的力量下,大地陷入永久的月圆之夜。弥勒的父亲弥苞法师将其封禁。为了解开禁锢,神久夜授意神乐寻找龙头之玉、蓬莱玉枝、佛之石钵、火鼠裘、燕之子安贝等五样宝贝。渴望得到永远自由的神乐心甘情愿为其驱使,甚至向犬夜叉和琥珀发起攻击。为了阻止世界毁灭,犬夜叉一行人重新聚首,向神久夜所在的富士山进发……
  1. Video
  2. ID                                       : 1
  3. Format                                   : AVC
  4. Format/Info                              : Advanced Video Codec
  5. Format profile                           : <a href="/cdn-cgi/l/email-protection" class="__cf_email__" data-cfemail="c58daca2ad8589f1ebf4">High@L4.1</a>
  6. Format settings                          : CABAC / 4 Ref Frames
  7. Format settings, CABAC                   : Yes
  8. Format settings, Reference frames        : 4 frames
  9. Codec ID                                 : V_MPEG4/ISO/AVC
  10. Duration                                 : 1 h 39 min
  11. Bit rate                                 : 11.2 Mb/s
  12. Width                                    : 1 920 pixels
  13. Height                                   : 1 040 pixels
  14. Display aspect ratio                     : 1.85:1
  15. Frame rate mode                          : Constant
  16. Frame rate                               : 29.970 (30000/1001) FPS
  17. Color space                              : YUV
  18. Chroma subsampling                       : 4:2:0
  19. Bit depth                                : 8 bits
  20. Scan type                                : Progressive
  21. Bits/(Pixel*Frame)                       : 0.187
  22. Stream size                              : 7.76 GiB (90%)
  23. Writing library                          : x264 core 157 r2935 545de2f
  24. Encoding settings                        : cabac=1 / ref=4 / deblock=1:-3:-3 / analyse=0x3:0x133 / me=umh / subme=9 / psy=1 / psy_rd=1.00:0.00 / mixed_ref=1 / me_range=24 / chroma_me=1 / trellis=2 / 8x8dct=1 / cqm=0 / deadzone=21,11 / fast_pskip=0 / chroma_qp_offset=-2 / threads=18 / lookahead_threads=2 / sliced_threads=0 / nr=0 / decimate=1 / interlaced=0 / bluray_compat=0 / constrained_intra=0 / bframes=5 / b_pyramid=2 / b_adapt=2 / b_bias=0 / direct=3 / weightb=1 / open_gop=0 / weightp=2 / keyint=300 / keyint_min=30 / scenecut=40 / intra_refresh=0 / rc_lookahead=50 / rc=crf / mbtree=0 / crf=16.5 / qcomp=0.60 / qpmin=0 / qpmax=69 / qpstep=4 / vbv_maxrate=62500 / vbv_bufsize=78125 / crf_max=0.0 / nal_hrd=none / filler=0 / ip_ratio=1.40 / pb_ratio=1.30 / aq=2:1.00
  25. Default                                  : Yes
  26. Forced                                   : No
  27. Color range                              : Limited
  28. Color primaries                          : BT.709
  29. Transfer characteristics                 : BT.709
  30. Matrix coefficients                      : BT.709

  31. Audio #1
  32. ID                                       : 2
  33. Format                                   : AC-3
  34. Format/Info                              : Audio Coding 3
  35. Commercial name                          : Dolby Digital
  36. Codec ID                                 : A_AC3
  37. Duration                                 : 1 h 39 min
  38. Bit rate mode                            : Constant
  39. Bit rate                                 : 640 kb/s
  40. Channel(s)                               : 6 channels
  41. Channel layout                           : L R C LFE Ls Rs
  42. Sampling rate                            : 48.0 kHz
  43. Frame rate                               : 31.250 FPS (1536 SPF)
  44. Bit depth                                : 16 bits
  45. Compression mode                         : Lossy
  46. Delay relative to video                  : -5 ms
  47. Stream size                              : 454 MiB (5%)
  48. Language                                 : Japanese
  49. Service kind                             : Complete Main
  50. Default                                  : Yes
  51. Forced                                   : No

  52. Audio #2
  53. ID                                       : 3
  54. Format                                   : AC-3
  55. Format/Info                              : Audio Coding 3
  56. Commercial name                          : Dolby Digital
  57. Codec ID                                 : A_AC3
  58. Duration                                 : 1 h 39 min
  59. Bit rate mode                            : Constant
  60. Bit rate                                 : 640 kb/s
  61. Channel(s)                               : 6 channels
  62. Channel layout                           : L R C LFE Ls Rs
  63. Sampling rate                            : 48.0 kHz
  64. Frame rate                               : 31.250 FPS (1536 SPF)
  65. Bit depth                                : 16 bits
  66. Compression mode                         : Lossy
  67. Delay relative to video                  : -5 ms
  68. Stream size                              : 454 MiB (5%)
  69. Title                                    : English Dub
  70. Language                                 : English
  71. Service kind                             : Complete Main
  72. Default                                  : No
  73. Forced                                   : No

  74. Text
  75. ID                                       : 4
  76. Format                                   : UTF-8
  77. Codec ID                                 : S_TEXT/UTF8
  78. Codec ID/Info                            : UTF-8 Plain Text
  79. Duration                                 : 1 h 38 min
  80. Bit rate                                 : 44 b/s
  81. Count of elements                        : 1247
  82. Stream size                              : 32.2 KiB (0%)
  83. Language                                 : English
  84. Default                                  : Yes
  85. Forced                                   : No
复制代码

镜中的梦幻城 Inuyasha.The.Movie.2.Castle.Beyond.The.Looking.Glass.2002.JAPANESE.1080p.BluRay.x264-HANDJOB 8.65GB-2.png 镜中的梦幻城 Inuyasha.The.Movie.2.Castle.Beyond.The.Looking.Glass.2002.JAPANESE.1080p.BluRay.x264-HANDJOB 8.65GB-3.png 镜中的梦幻城 Inuyasha.The.Movie.2.Castle.Beyond.The.Looking.Glass.2002.JAPANESE.1080p.BluRay.x264-HANDJOB 8.65GB-4.png






开通VIP免费下载本站所有资源---点这里
新手必看:资源下载常见问题---点这里
回复

使用道具 举报

懒得打字嘛,点击右侧快捷回复 【右侧内容,后台自定义】
您需要登录后才可以回帖 登录 | 立即加入

本版积分规则

现在加入蓝光电影网,注册一个账号

QQ| 手机版|小黑屋| 蓝光电影网 |网站地图

Copyright © 2015-2019 Comsenz Inc.  Template by 蓝光电影网 All Rights Reserved.

Powered by 蓝光电影网 X3.4

特别声明:本站所有资源均由网上收集而来,版权归原影音公司所有,如果侵犯了你的权益,请通知我们,我们会及时删除侵权内容.

快速回复 返回顶部 返回列表