找回密码

蓝光电影网

查看: 42|回复: 0

[剧情] 玛茜与朱 Marcy.1969.1080p.BluRay.x264-HANDJOB 5.72GB

[复制链接]

 成长值: 1420

发表于 2019-9-11 15:01:32 | 显示全部楼层 |阅读模式
玛茜与朱 Marcy.1969.1080p.BluRay.x264-HANDJOB 5.72GB-1.png

译  名 玛茜与朱
片  名 Marcy
年  代 1969
产  地 美国
类  别 剧情
语  言 英语
上映日期 1969
IMDb评分  5.4/10 from 32 users
IMDb链接  http://www.imdb.com/title/tt0064637
豆瓣评分 0/10 from 0 users
豆瓣链接 https://movie.douban.com/subject/25737942/
导  演 Joseph W. Sarno
编  剧 Joseph W. Sarno
主  演 Uta Erickson
       Sheila Britt
       Barbara Lance


标  签 情色 | Joseph_W_Sarno | 1969 | 美國 | 美国 | 有看点 | 暂存 | 已发布

简  介  

  “At the height of his creative output, director Joe Sarno was known for flinging out an ungodly number of softcore films each year with a surprisingly high standard of quality. Psychological insight, intensely erotic love scenes, and off-kilter dialogue were his stock in trade with films like All the Sins of Sodom and Young Playthings, but sandwiched in between these are some really oddball ones. Case in point: Marcy, a 1968 hayseed melodrama that feels like a stylistic precursor to the country cutie smut films of Harry Novak the following decade like Sassy Sue and Country Cuzzins, albeit with a lot less of that cornpone humor. The plot also feels like sort of a deep-fried riff on D.H. Lawrence’s The Fox, believe it or not, which Norman J. Warren also turned into a sex/sci-fi trash classic with Prey.
  The plot’s pretty simple. Out in the boonies, young Marcy (Love Toy’s Uta Erickson) has shacked up with the older June (Submission’s Britt), and word spreads like wildfire that the two women are enjoying each other’s company in a way that keeps ?em really, really warm at night. Their handyman insists he hasn’t seen the women actually having sex, but they do tend to “rassle around on the ground outside” before retiring to their bedrooms. Hmmm. Muddying the waters even more, the local men all seem intent on bedding both of them to prove that it only takes the right man to make a girl swing, and the advances aren’t always refused. Of course, it’s only a matter of time before we find out what’s really going on as one of Sarno’s trademark girl-on-girl scenarios finally plays out for the camera.
  1. Video
  2. ID                                       : 2
  3. Format                                   : AVC
  4. Format/Info                              : Advanced Video Codec
  5. Format profile                           : <a href="/cdn-cgi/l/email-protection" class="__cf_email__" data-cfemail="e3ab8a848ba3afd7cdd2">High@L4.1</a>
  6. Format settings                          : CABAC / 4 Ref Frames
  7. Format settings, CABAC                   : Yes
  8. Format settings, Reference frames        : 4 frames
  9. Codec ID                                 : V_MPEG4/ISO/AVC
  10. Duration                                 : 1 h 16 min
  11. Bit rate                                 : 10.3 Mb/s
  12. Width                                    : 1 916 pixels
  13. Height                                   : 1 078 pixels
  14. Display aspect ratio                     : 16:9
  15. Original display aspect ratio            : 16:9
  16. Frame rate mode                          : Constant
  17. Frame rate                               : 23.976 (24000/1001) FPS
  18. Color space                              : YUV
  19. Chroma subsampling                       : 4:2:0
  20. Bit depth                                : 8 bits
  21. Scan type                                : Progressive
  22. Bits/(Pixel*Frame)                       : 0.209
  23. Stream size                              : 5.53 GiB (97%)
  24. Writing library                          : x264 core 142 r2479 dd79a61
  25. Encoding settings                        : cabac=1 / ref=4 / deblock=1:-3:-3 / analyse=0x3:0x133 / me=umh / subme=10 / psy=1 / psy_rd=1.00:0.00 / mixed_ref=1 / me_range=32 / chroma_me=1 / trellis=2 / 8x8dct=1 / cqm=0 / deadzone=21,11 / fast_pskip=0 / chroma_qp_offset=-2 / threads=6 / lookahead_threads=1 / sliced_threads=0 / nr=0 / decimate=0 / interlaced=0 / bluray_compat=0 / constrained_intra=0 / bframes=16 / b_pyramid=2 / b_adapt=2 / b_bias=0 / direct=3 / weightb=1 / open_gop=0 / weightp=2 / keyint=240 / keyint_min=24 / scenecut=40 / intra_refresh=0 / rc_lookahead=60 / rc=crf / mbtree=0 / crf=22.3 / qcomp=0.60 / qpmin=0 / qpmax=69 / qpstep=4 / vbv_maxrate=62500 / vbv_bufsize=78125 / crf_max=0.0 / nal_hrd=none / filler=0 / ip_ratio=1.40 / pb_ratio=1.30 / aq=2:1.00
  26. Default                                  : Yes
  27. Forced                                   : No
  28. Color range                              : Limited
  29. Color primaries                          : BT.709
  30. Transfer characteristics                 : BT.709
  31. Matrix coefficients                      : BT.709

  32. Audio
  33. ID                                       : 1
  34. Format                                   : AAC LC
  35. Format/Info                              : Advanced Audio Codec Low Complexity
  36. Codec ID                                 : A_AAC-2
  37. Duration                                 : 1 h 16 min
  38. Bit rate                                 : 353 kb/s
  39. Channel(s)                               : 2 channels
  40. Channel layout                           : L R
  41. Sampling rate                            : 48.0 kHz
  42. Frame rate                               : 46.875 FPS (1024 SPF)
  43. Compression mode                         : Lossy
  44. Stream size                              : 191 MiB (3%)
  45. Language                                 : English
  46. Default                                  : Yes
  47. Forced                                   : No

  48. Menu
  49. 00:00:00.000                             : :Chapter 1
  50. 00:05:46.179                             : :Chapter 2
  51. 00:13:21.509                             : :Chapter 3
  52. 00:20:33.315                             : :Chapter 4
  53. 00:27:38.031                             : :Chapter 5
  54. 00:32:43.170                             : :Chapter 6
  55. 00:39:34.289                             : :Chapter 7
  56. 00:46:28.703                             : :Chapter 8
  57. 00:53:43.637                             : :Chapter 9
  58. 00:59:53.090                             : :Chapter 10
  59. 01:06:02.876                             : :Chapter 11
  60. 01:09:29.248                             : :Chapter 12
复制代码

玛茜与朱 Marcy.1969.1080p.BluRay.x264-HANDJOB 5.72GB-2.png 玛茜与朱 Marcy.1969.1080p.BluRay.x264-HANDJOB 5.72GB-3.png 玛茜与朱 Marcy.1969.1080p.BluRay.x264-HANDJOB 5.72GB-4.png






开通VIP免费下载本站所有资源---点这里
新手必看:资源下载常见问题---点这里
回复

使用道具 举报

懒得打字嘛,点击右侧快捷回复 【右侧内容,后台自定义】
您需要登录后才可以回帖 登录 | 立即加入

本版积分规则

现在加入蓝光电影网,注册一个账号

QQ| 手机版|小黑屋| 蓝光电影网 |网站地图

Copyright © 2015-2019 Comsenz Inc.  Template by 蓝光电影网 All Rights Reserved.

Powered by 蓝光电影网 X3.4

特别声明:本站所有资源均由网上收集而来,版权归原影音公司所有,如果侵犯了你的权益,请通知我们,我们会及时删除侵权内容.

快速回复 返回顶部 返回列表