找回密码

蓝光电影网

查看: 42|回复: 0

[纪录] 故乡之光 Nostalgia.De.La.Luz.2010.SPANISH.1080p.BluRay.x264-HANDJOB 7.17GB

[复制链接]

 成长值: 1420

发表于 2019-9-11 14:59:24 | 显示全部楼层 |阅读模式
故乡之光 Nostalgia.De.La.Luz.2010.SPANISH.1080p.BluRay.x264-HANDJOB 7.17GB-1.png

译  名 故乡之光 / Nostalgia for the Light / Nostalgie de la lumière / 光之乡愁 / 怀念星光 / 渴望光明
片  名 Nostalgia de la luz
年  代 2010
产  地 法国 / 德国 / 智利
类  别 剧情 / 纪录片
语  言 西班牙语
上映日期 2010-10-27(法国)
IMDb评分  7.6/10 from 4314 users
IMDb链接  http://www.imdb.com/title/tt1556190
豆瓣评分 8.2/10 from 811 users
豆瓣链接 https://movie.douban.com/subject/4307515/
片  长 90分钟(法国)
导  演 帕特里克·古兹曼 Patricio Guzmán
编  剧 帕特里克·古兹曼 Patricio Guzmán
主  演 Gaspar Galaz
       Lautaro Nú?ez
       Luís Henríquez
       Miguel Lawner
       Victor González
       Vicky Saaveda


标  签 纪录片 | 智利 | 法国 | 2010 | 法国电影 | Patricio_Guzmán | 2010s | documentary

简  介  

  在智利的阿塔卡马沙漠,天文学家探寻宇宙以寻找生命的起源,不远处,当地的妇女正在沙丘中搜寻亲人的尸骸,他们是被皮诺切特独裁政权随意处置和杀害的。导演帕特里克·古兹曼将这两种关于生命的找寻并置在一起,引人深思。
  这是一部在海拔3000米的Atacama沙漠拍摄的纪录片。天文学家聚集在那里观测群星。这个地方还因一个原因吸引了众多来访者:地表的干旱能使人类尸体完好无损。除了那些干尸和迷路的探险者的尸体,还有许多政治被关押在这片沙漠中而死去。影片强调了这样的两面性,将天文学家观测繁星寻找外星生命和那些支离破碎的家庭寻找亲人对比。所以影片的政治层面很清晰。
  幕后制作
  导演帕特里克·古兹曼的每一部影片都和20世纪智利国家的回忆有关:从他在1975年戛纳影展平行竞赛单元放映的《智利之战》三部曲开始,一直到在2004年非竞赛单元放映的《萨尔瓦多·阿兰德》。《故乡之光》也延续了这一主题,影片面向未来(群星),同时不忘为了赢得独立的代价和那段充满鲜血的痛苦的过去。

获奖情况  

  第23届欧洲电影奖(2010)
  最佳纪录片 帕特里西奥·古斯曼
  1. Video
  2. ID                                       : 1
  3. Format                                   : AVC
  4. Format/Info                              : Advanced Video Codec
  5. Format profile                           : <a href="/cdn-cgi/l/email-protection" class="__cf_email__" data-cfemail="7139181619313d455f40">High@L4.1</a>
  6. Format settings                          : CABAC / 4 Ref Frames
  7. Format settings, CABAC                   : Yes
  8. Format settings, Reference frames        : 4 frames
  9. Codec ID                                 : V_MPEG4/ISO/AVC
  10. Duration                                 : 1 h 30 min
  11. Bit rate                                 : 10.7 Mb/s
  12. Width                                    : 1 920 pixels
  13. Height                                   : 1 080 pixels
  14. Display aspect ratio                     : 16:9
  15. Frame rate mode                          : Constant
  16. Frame rate                               : 25.000 FPS
  17. Color space                              : YUV
  18. Chroma subsampling                       : 4:2:0
  19. Bit depth                                : 8 bits
  20. Scan type                                : Progressive
  21. Bits/(Pixel*Frame)                       : 0.207
  22. Stream size                              : 6.76 GiB (94%)
  23. Writing library                          : x264 core 157 r2935 545de2f
  24. Encoding settings                        : cabac=1 / ref=4 / deblock=1:-3:-3 / analyse=0x3:0x133 / me=umh / subme=9 / psy=1 / psy_rd=1.00:0.00 / mixed_ref=1 / me_range=24 / chroma_me=1 / trellis=2 / 8x8dct=1 / cqm=0 / deadzone=21,11 / fast_pskip=0 / chroma_qp_offset=-2 / threads=12 / lookahead_threads=1 / sliced_threads=0 / nr=0 / decimate=1 / interlaced=0 / bluray_compat=0 / constrained_intra=0 / bframes=5 / b_pyramid=2 / b_adapt=2 / b_bias=0 / direct=3 / weightb=1 / open_gop=0 / weightp=2 / keyint=250 / keyint_min=25 / scenecut=40 / intra_refresh=0 / rc_lookahead=50 / rc=crf / mbtree=0 / crf=20.8 / qcomp=0.60 / qpmin=0 / qpmax=69 / qpstep=4 / vbv_maxrate=62500 / vbv_bufsize=78125 / crf_max=0.0 / nal_hrd=none / filler=0 / ip_ratio=1.40 / pb_ratio=1.30 / aq=2:1.00
  25. Default                                  : Yes
  26. Forced                                   : No
  27. Color range                              : Limited
  28. Color primaries                          : BT.709
  29. Transfer characteristics                 : BT.709
  30. Matrix coefficients                      : BT.709

  31. Audio
  32. ID                                       : 2
  33. Format                                   : AC-3
  34. Format/Info                              : Audio Coding 3
  35. Commercial name                          : Dolby Digital
  36. Codec ID                                 : A_AC3
  37. Duration                                 : 1 h 29 min
  38. Bit rate mode                            : Constant
  39. Bit rate                                 : 640 kb/s
  40. Channel(s)                               : 6 channels
  41. Channel layout                           : L R C LFE Ls Rs
  42. Sampling rate                            : 48.0 kHz
  43. Frame rate                               : 31.250 FPS (1536 SPF)
  44. Bit depth                                : 16 bits
  45. Compression mode                         : Lossy
  46. Stream size                              : 411 MiB (6%)
  47. Language                                 : Spanish
  48. Service kind                             : Complete Main
  49. Default                                  : Yes
  50. Forced                                   : No

  51. Text
  52. ID                                       : 3
  53. Format                                   : UTF-8
  54. Codec ID                                 : S_TEXT/UTF8
  55. Codec ID/Info                            : UTF-8 Plain Text
  56. Duration                                 : 1 h 27 min
  57. Bit rate                                 : 38 b/s
  58. Count of elements                        : 721
  59. Stream size                              : 24.9 KiB (0%)
  60. Language                                 : English
  61. Default                                  : Yes
  62. Forced                                   : No

  63. Menu
  64. 00:00:00.000                             : :The German Telescope
  65. 00:05:52.280                             : :A Revolutionary Tide
  66. 00:12:25.800                             : :Roots Beyond the Light
  67. 00:18:07.880                             : :A Lapse in Time
  68. 00:24:04.680                             : :At a Gateway to the Past
  69. 00:30:15.800                             : :Another Night\'s Work
  70. 00:36:43.760                             : :Measurements
  71. 00:42:48.720                             : :ALMA
  72. 00:48:14.560                             : :Searching
  73. 00:53:42.840                             : :Identifying the Pieces
  74. 00:58:45.080                             : :Taught Not to Believe
  75. 01:06:06.680                             : :A Moral Obligation
  76. 01:12:09.280                             : :Preserved Like Treasure
  77. 01:17:06.200                             : :Another Dimension
  78. 01:23:57.840                             : :The Force  of Memory
复制代码

故乡之光 Nostalgia.De.La.Luz.2010.SPANISH.1080p.BluRay.x264-HANDJOB 7.17GB-2.png 故乡之光 Nostalgia.De.La.Luz.2010.SPANISH.1080p.BluRay.x264-HANDJOB 7.17GB-3.png 故乡之光 Nostalgia.De.La.Luz.2010.SPANISH.1080p.BluRay.x264-HANDJOB 7.17GB-4.png






开通VIP免费下载本站所有资源---点这里
新手必看:资源下载常见问题---点这里
回复

使用道具 举报

懒得打字嘛,点击右侧快捷回复 【右侧内容,后台自定义】
您需要登录后才可以回帖 登录 | 立即加入

本版积分规则

现在加入蓝光电影网,注册一个账号

QQ| 手机版|小黑屋| 蓝光电影网 |网站地图

Copyright © 2015-2019 Comsenz Inc.  Template by 蓝光电影网 All Rights Reserved.

Powered by 蓝光电影网 X3.4

特别声明:本站所有资源均由网上收集而来,版权归原影音公司所有,如果侵犯了你的权益,请通知我们,我们会及时删除侵权内容.

快速回复 返回顶部 返回列表