找回密码

蓝光电影网

查看: 51|回复: 1

[歌舞] 俄克拉荷马/奥克拉荷马 Oklahoma.1999.1080p.BluRay.x264-HANDJOB 16.31GB

[复制链接]

 成长值: 1420

发表于 2019-9-11 14:58:32 | 显示全部楼层 |阅读模式
俄克拉荷马/奥克拉荷马 Oklahoma.1999.1080p.BluRay.x264-HANDJOB 16.31GB-1.png

译  名 俄克拉荷马 / 奥克拉荷马
片  名 Oklahoma! (1999) (TV)
产  地 英国
类  别 歌舞
语  言 英语
上映日期 1999-09-26
IMDb评分  7.9/10 from 1688 users
IMDb链接  http://www.imdb.com/title/tt0216048
豆瓣评分 8.7/10 from 508 users
豆瓣链接 https://movie.douban.com/subject/1938520/
片  长 180分钟(DVD)
导  演 特雷弗·纳恩 Trevor Nunn
编  剧 奥斯卡·汉默斯坦二世 Oscar Hammerstein II / 林恩·瑞格斯 Lynn Riggs
主  演 休·杰克曼 Hugh Jackman
       Josefina Gabrielle
       舒勒·汉斯利 Shuler Hensley


标  签 音乐剧 | HughJackman | 美国 | 百老汇 | 休·杰克曼 | 经典 | 俄克拉荷马 | musical

简  介  

  《奥克拉荷马》《OK lahoma》是美国音乐界两大宗师合力打造而成。理查罗杰斯作曲,奥斯卡汉默斯坦二世填词。以描述二十世纪初期发生在美国西部乡村的三角恋情故事为主题之划时代歌舞大戏。本片是《奥》剧首次以35厘米电影手法拍摄而成的宽荧屏巨作。堪称为《奥》剧现有版本中,制作及表演菁华极品。因为不仅编舞唯美,配乐悠扬,所参与演出之演员皆为昔日首演的原班人马。《奥》剧所受赞誉之声不绝于耳,屡获大奖;其中一举囊括1999年劳伦斯奥利弗奖中“最佳音乐剧制剧评人奖之最佳音乐剧”等佳绩。此剧由名词曲作家之最佳拍档罗杰斯和汉默斯坦二世和葛莱美奖各两项,奖项之多可谓空前绝后。由主演《X战警》出生于澳大利亚雪梨的休斯·杰克曼、著名女高音歌唱家荷西芬娜·吉柏莉、出生于亚特兰大连纽荣获[奥立佛奖]和[东尼奖最佳男配角]的舒勒·汉斯利、出生于英国约克郡多次赢得[奥立佛奖和Variety Club Award]的玛丽安·利普等联合主演。当时最为风光的音乐剧,在百老汇音乐剧界独占鳌头,尊容无以伦比。
  1. Video
  2. ID                                       : 1
  3. Format                                   : AVC
  4. Format/Info                              : Advanced Video Codec
  5. Format profile                           : <a href="/cdn-cgi/l/email-protection" class="__cf_email__" data-cfemail="357d5c525d7579011b04">High@L4.1</a>
  6. Format settings                          : CABAC / 4 Ref Frames
  7. Format settings, CABAC                   : Yes
  8. Format settings, Reference frames        : 4 frames
  9. Codec ID                                 : V_MPEG4/ISO/AVC
  10. Duration                                 : 2 h 57 min
  11. Bit rate                                 : 11.6 Mb/s
  12. Width                                    : 1 920 pixels
  13. Height                                   : 1 080 pixels
  14. Display aspect ratio                     : 16:9
  15. Frame rate mode                          : Constant
  16. Frame rate                               : 23.976 (24000/1001) FPS
  17. Color space                              : YUV
  18. Chroma subsampling                       : 4:2:0
  19. Bit depth                                : 8 bits
  20. Scan type                                : Progressive
  21. Bits/(Pixel*Frame)                       : 0.234
  22. Stream size                              : 14.4 GiB (89%)
  23. Writing library                          : x264 core 157 r2935 545de2f
  24. Encoding settings                        : cabac=1 / ref=4 / deblock=1:-3:-3 / analyse=0x3:0x133 / me=umh / subme=10 / psy=1 / psy_rd=1.00:0.00 / mixed_ref=1 / me_range=24 / chroma_me=1 / trellis=2 / 8x8dct=1 / cqm=0 / deadzone=21,11 / fast_pskip=0 / chroma_qp_offset=-2 / threads=24 / lookahead_threads=4 / sliced_threads=0 / nr=0 / decimate=0 / interlaced=0 / bluray_compat=0 / constrained_intra=0 / bframes=8 / b_pyramid=2 / b_adapt=2 / b_bias=0 / direct=3 / weightb=1 / open_gop=0 / weightp=2 / keyint=240 / keyint_min=24 / scenecut=40 / intra_refresh=0 / rc_lookahead=60 / rc=crf / mbtree=0 / crf=21.5 / qcomp=0.60 / qpmin=0 / qpmax=69 / qpstep=4 / vbv_maxrate=62500 / vbv_bufsize=78125 / crf_max=0.0 / nal_hrd=none / filler=0 / ip_ratio=1.40 / pb_ratio=1.30 / aq=2:1.00
  25. Default                                  : Yes
  26. Forced                                   : No
  27. Color range                              : Limited
  28. Color primaries                          : BT.709
  29. Transfer characteristics                 : BT.709
  30. Matrix coefficients                      : BT.709

  31. Audio
  32. ID                                       : 2
  33. Format                                   : DTS
  34. Format/Info                              : Digital Theater Systems
  35. Codec ID                                 : A_DTS
  36. Duration                                 : 2 h 57 min
  37. Bit rate mode                            : Constant
  38. Bit rate                                 : 1 509 kb/s
  39. Channel(s)                               : 2 channels
  40. Channel layout                           : L R
  41. Sampling rate                            : 48.0 kHz
  42. Frame rate                               : 93.750 FPS (512 SPF)
  43. Bit depth                                : 16 bits
  44. Compression mode                         : Lossy
  45. Stream size                              : 1.87 GiB (11%)
  46. Language                                 : English
  47. Default                                  : Yes
  48. Forced                                   : No

  49. Text
  50. ID                                       : 3
  51. Format                                   : UTF-8
  52. Codec ID                                 : S_TEXT/UTF8
  53. Codec ID/Info                            : UTF-8 Plain Text
  54. Duration                                 : 2 h 54 min
  55. Bit rate                                 : 63 b/s
  56. Count of elements                        : 2591
  57. Stream size                              : 81.4 KiB (0%)
  58. Language                                 : English
  59. Default                                  : No
  60. Forced                                   : No

  61. Menu
  62. 00:00:00.000                             : :Chapter 1
  63. 00:02:48.669                             : :Chapter 2
  64. 00:27:02.663                             : :Chapter 3
  65. 00:44:29.750                             : :Chapter 4
  66. 00:53:19.780                             : :Chapter 5
  67. 01:07:21.538                             : :Chapter 6
  68. 01:26:42.239                             : :Chapter 7
  69. 01:46:11.156                             : :Chapter 8
  70. 01:46:18.747                             : :Chapter 9
  71. 02:11:35.554                             : :Chapter 10
  72. 02:20:21.246                             : :Chapter 11
  73. 02:28:02.665                             : :Chapter 12
  74. 02:32:29.474                             : :Chapter 13
  75. 02:55:09.749                             : :Chapter 14
复制代码

俄克拉荷马/奥克拉荷马 Oklahoma.1999.1080p.BluRay.x264-HANDJOB 16.31GB-2.png 俄克拉荷马/奥克拉荷马 Oklahoma.1999.1080p.BluRay.x264-HANDJOB 16.31GB-3.png 俄克拉荷马/奥克拉荷马 Oklahoma.1999.1080p.BluRay.x264-HANDJOB 16.31GB-4.png






开通VIP免费下载本站所有资源---点这里
新手必看:资源下载常见问题---点这里
回复

使用道具 举报

发表于 2019-9-13 08:42:56 | 显示全部楼层
楼主发贴辛苦了,谢谢楼主分享!我觉得蓝光电影网是注册对了!
开通VIP免费下载本站所有资源---点这里
新手必看:资源下载常见问题---点这里
回复 支持 反对

使用道具 举报

懒得打字嘛,点击右侧快捷回复 【右侧内容,后台自定义】
您需要登录后才可以回帖 登录 | 立即加入

本版积分规则

现在加入蓝光电影网,注册一个账号

QQ| 手机版|小黑屋| 蓝光电影网 |网站地图

Copyright © 2015-2019 Comsenz Inc.  Template by 蓝光电影网 All Rights Reserved.

Powered by 蓝光电影网 X3.4

特别声明:本站所有资源均由网上收集而来,版权归原影音公司所有,如果侵犯了你的权益,请通知我们,我们会及时删除侵权内容.

快速回复 返回顶部 返回列表