找回密码

蓝光电影网

查看: 69|回复: 2

[纪录] 电影剪接的魔力/PBS电影剪接的魔力 The.Cutting.Edge.The.Magic.Of.Movie.Editing.2004.1080p.BluRay.x264-HANDJOB 8.48GB

[复制链接]

 成长值: 1420

发表于 2019-9-11 14:57:27 | 显示全部楼层 |阅读模式
电影剪接的魔力/PBS电影剪接的魔力 The.Cutting.Edge.The.Magic.Of.Movie.Editing.2004.1080p.BluRay.x264-HANDJOB 8.48GB-1.png

译  名 电影剪接的魔力 / PBS电影剪接的魔力 / 出神入化:电影剪辑的魔力
片  名 The Cutting Edge: The Magic of Movie Editing
年  代 2004
产  地 美国 / 日本 / 英国
类  别 纪录片
语  言 英语
上映日期 2004-10-15
IMDb评分  7.8/10 from 2425 users
IMDb链接  http://www.imdb.com/title/tt0428441
豆瓣评分 8.8/10 from 4794 users
豆瓣链接 https://movie.douban.com/subject/1778624/
片  长 USA: 98 分钟
导  演 Wendy Apple
主  演 马丁·斯科塞斯 Martin Scorsese
       史蒂文·斯皮尔伯格 Steven Spielberg
       乔治·卢卡斯 George Lucas
       朱迪·福斯特 Jodie Foster
       西恩·潘 Sean Penn
       昆汀·塔伦蒂诺 Quentin Tarantino
       安东尼·明格拉 Anthony Minghella


标  签 纪录片 | 剪辑 | 美国 | 电影 | 2004 | Documentary | 美国电影 | 纪实

简  介  

  《剪辑》,这是一个学习电影电视剪辑的好教材。首先,这个节目的题目叫“剪辑”而不是蒙太奇。这在西方是非常明确的。美英“editor”,法国,意大利用“montaz”. 剪辑是遵守前电影空间的,它有一个主镜头。蒙太奇是把拍摄下来的镜头当素材,然后在剪辑台上形成一个现实中没有的电影的时空。好莱坞这个概念在中国有许多希奇古怪的神话。这个节目全部由好莱坞的剪辑师和导演的观念组成的。
  这里讲的是影片制作的真功夫,不是教你怎样炒做,怎样编造。最简单不过的道理,一部影片的票房价值不是依靠撒谎,吹牛,唬,咋。它靠的是真功夫。好莱坞的影片质量就是建立在这些基本功的基础上的。你们可以注意到,他们是强调剧本还是剪辑,你们也可以看到,他们对演员是怎么看待的。
  1. Video
  2. ID                                       : 1
  3. Format                                   : AVC
  4. Format/Info                              : Advanced Video Codec
  5. Format profile                           : <a href="/cdn-cgi/l/email-protection" class="__cf_email__" data-cfemail="367e5f515e767a021807">High@L4.1</a>
  6. Format settings                          : CABAC / 4 Ref Frames
  7. Format settings, CABAC                   : Yes
  8. Format settings, Reference frames        : 4 frames
  9. Codec ID                                 : V_MPEG4/ISO/AVC
  10. Duration                                 : 1 h 39 min
  11. Bit rate                                 : 11.6 Mb/s
  12. Width                                    : 1 916 pixels
  13. Height                                   : 1 080 pixels
  14. Display aspect ratio                     : 16:9
  15. Frame rate mode                          : Constant
  16. Frame rate                               : 23.976 (24000/1001) FPS
  17. Color space                              : YUV
  18. Chroma subsampling                       : 4:2:0
  19. Bit depth                                : 8 bits
  20. Scan type                                : Progressive
  21. Bits/(Pixel*Frame)                       : 0.233
  22. Stream size                              : 8.03 GiB (95%)
  23. Writing library                          : x264 core 157 r2935 545de2f
  24. Encoding settings                        : cabac=1 / ref=4 / deblock=1:-3:-3 / analyse=0x3:0x133 / me=umh / subme=9 / psy=1 / psy_rd=1.00:0.00 / mixed_ref=1 / me_range=24 / chroma_me=1 / trellis=2 / 8x8dct=1 / cqm=0 / deadzone=21,11 / fast_pskip=0 / chroma_qp_offset=-2 / threads=18 / lookahead_threads=2 / sliced_threads=0 / nr=0 / decimate=1 / interlaced=0 / bluray_compat=0 / constrained_intra=0 / bframes=5 / b_pyramid=2 / b_adapt=2 / b_bias=0 / direct=3 / weightb=1 / open_gop=0 / weightp=2 / keyint=240 / keyint_min=24 / scenecut=40 / intra_refresh=0 / rc_lookahead=50 / rc=crf / mbtree=0 / crf=19.2 / qcomp=0.60 / qpmin=0 / qpmax=69 / qpstep=4 / vbv_maxrate=62500 / vbv_bufsize=78125 / crf_max=0.0 / nal_hrd=none / filler=0 / ip_ratio=1.40 / pb_ratio=1.30 / aq=2:1.00
  25. Default                                  : Yes
  26. Forced                                   : No
  27. Color range                              : Limited
  28. Color primaries                          : BT.709
  29. Transfer characteristics                 : BT.709
  30. Matrix coefficients                      : BT.709

  31. Audio
  32. ID                                       : 2
  33. Format                                   : AC-3
  34. Format/Info                              : Audio Coding 3
  35. Commercial name                          : Dolby Digital
  36. Codec ID                                 : A_AC3
  37. Duration                                 : 1 h 39 min
  38. Bit rate mode                            : Constant
  39. Bit rate                                 : 640 kb/s
  40. Channel(s)                               : 6 channels
  41. Channel layout                           : L R C LFE Ls Rs
  42. Sampling rate                            : 48.0 kHz
  43. Frame rate                               : 31.250 FPS (1536 SPF)
  44. Bit depth                                : 16 bits
  45. Compression mode                         : Lossy
  46. Stream size                              : 455 MiB (5%)
  47. Language                                 : English
  48. Service kind                             : Complete Main
  49. Default                                  : Yes
  50. Forced                                   : No

  51. Text
  52. ID                                       : 3
  53. Format                                   : UTF-8
  54. Codec ID                                 : S_TEXT/UTF8
  55. Codec ID/Info                            : UTF-8 Plain Text
  56. Duration                                 : 1 h 38 min
  57. Bit rate                                 : 101 b/s
  58. Count of elements                        : 1507
  59. Stream size                              : 73.2 KiB (0%)
  60. Language                                 : English
  61. Default                                  : No
  62. Forced                                   : No

  63. Menu
  64. 00:00:00.000                             : :Chapter 1
  65. 00:02:44.039                             : :Chapter 2
  66. 00:07:26.029                             : :Chapter 3
  67. 00:10:26.876                             : :Chapter 4
  68. 00:14:55.645                             : :Chapter 5
  69. 00:20:26.058                             : :Chapter 6
  70. 00:26:40.933                             : :Chapter 7
  71. 00:30:24.114                             : :Chapter 8
  72. 00:36:33.274                             : :Chapter 9
  73. 00:43:13.382                             : :Chapter 10
  74. 00:53:24.201                             : :Chapter 11
  75. 00:58:10.362                             : :Chapter 12
  76. 01:02:10.936                             : :Chapter 13
  77. 01:04:16.519                             : :Chapter 14
  78. 01:12:18.584                             : :Chapter 15
  79. 01:16:22.745                             : :Chapter 16
  80. 01:18:50.976                             : :Chapter 17
  81. 01:23:50.943                             : :Chapter 18
  82. 01:26:20.008                             : :Chapter 19
  83. 01:33:59.342                             : :Chapter 20
复制代码

电影剪接的魔力/PBS电影剪接的魔力 The.Cutting.Edge.The.Magic.Of.Movie.Editing.2004.1080p.BluRay.x264-HANDJOB 8.48GB-2.png 电影剪接的魔力/PBS电影剪接的魔力 The.Cutting.Edge.The.Magic.Of.Movie.Editing.2004.1080p.BluRay.x264-HANDJOB 8.48GB-3.png 电影剪接的魔力/PBS电影剪接的魔力 The.Cutting.Edge.The.Magic.Of.Movie.Editing.2004.1080p.BluRay.x264-HANDJOB 8.48GB-4.png






开通VIP免费下载本站所有资源---点这里
新手必看:资源下载常见问题---点这里
回复

使用道具 举报

发表于 2019-9-12 08:22:49 | 显示全部楼层

楼主太厉害了!楼主,电影应该很好看我觉得蓝光电影网真是个好地方!
开通VIP免费下载本站所有资源---点这里
新手必看:资源下载常见问题---点这里
回复 支持 反对

使用道具 举报

发表于 2019-9-13 09:03:15 | 显示全部楼层
楼主发贴辛苦了,谢谢楼主分享!我觉得蓝光电影网是注册对了!
开通VIP免费下载本站所有资源---点这里
新手必看:资源下载常见问题---点这里
回复 支持 反对

使用道具 举报

懒得打字嘛,点击右侧快捷回复 【右侧内容,后台自定义】
您需要登录后才可以回帖 登录 | 立即加入

本版积分规则

现在加入蓝光电影网,注册一个账号

QQ| 手机版|小黑屋| 蓝光电影网 |网站地图

Copyright © 2015-2019 Comsenz Inc.  Template by 蓝光电影网 All Rights Reserved.

Powered by 蓝光电影网 X3.4

特别声明:本站所有资源均由网上收集而来,版权归原影音公司所有,如果侵犯了你的权益,请通知我们,我们会及时删除侵权内容.

快速回复 返回顶部 返回列表