找回密码

蓝光电影网

查看: 80|回复: 1

[喜剧] 你玩什么? Get.Her.If.You.Can.2019.SPANISH.1080p.BluRay.x264.DTS-PTer 9.90GB

[复制链接]

 成长值: 1420

发表于 2019-9-11 14:54:55 | 显示全部楼层 |阅读模式
你玩什么? Get.Her.If.You.Can.2019.SPANISH.1080p.BluRay.x264.DTS-PTer 9.90GB-1.png

译  名 你玩什么? / Catch her if you can / ?Qué te juegas? / 爱妹赌局(台)
片  名 Qué te juegas
年  代 2019
产  地 西班牙
类  别 喜剧
语  言 西班牙语
上映日期 2019-01-04(西班牙)
IMDb评分  5.3/10 from 180 users
IMDb链接  http://www.imdb.com/title/tt7398584
豆瓣评分 5.5/10 from 92 users
豆瓣链接 https://movie.douban.com/subject/30405073/
导  演 Inés de León
编  剧 Pablo Alén / Breixo Corral
主  演 阿玛雅·萨拉曼卡 Amaia Salamanca
       Sara Salamo
       拉蒂西亚·多瑞拉 Leticia Dolera


标  签 喜剧 | 西班牙 | 西班牙电影 | 2019 | 爱情 | 搞笑 | 剧情 | 放映

简  介  

  伊莎貝是個脫口秀演員,雖然口袋裡沒什麼錢,卻積極把握生命中的一切。一天,她遇上了家財萬貫、經營海運公司的三兄妹。二哥羅伯特是個愛慕虛榮的少爺,妹妹丹妮拉則是脾氣火爆的討厭鬼。看上了伊莎貝逗笑自己難搞妹妹的才能,羅伯特決定雇用伊莎貝來“搞定”自家妹妹的心。這個完美計畫,還會有來自亞馬遜雨林的巫師、易怒的上尉大哥和兩位擁有堅定信念的演員參與。他們所有人到底會擦出什麼火花呢?
  1. Video
  2. ID                                       : 1
  3. Format                                   : AVC
  4. Format/Info                              : Advanced Video Codec
  5. Format profile                           : <a href="/cdn-cgi/l/email-protection" class="__cf_email__" data-cfemail="4901202e2109057d6778">High@L4.1</a>
  6. Format settings                          : CABAC / 5 Ref Frames
  7. Format settings, CABAC                   : Yes
  8. Format settings, Reference frames        : 5 frames
  9. Codec ID                                 : V_MPEG4/ISO/AVC
  10. Duration                                 : 1 h 42 min
  11. Bit rate                                 : 12.3 Mb/s
  12. Width                                    : 1 920 pixels
  13. Height                                   : 804 pixels
  14. Display aspect ratio                     : 2.40:1
  15. Frame rate mode                          : Constant
  16. Frame rate                               : 24.000 FPS
  17. Color space                              : YUV
  18. Chroma subsampling                       : 4:2:0
  19. Bit depth                                : 8 bits
  20. Scan type                                : Progressive
  21. Bits/(Pixel*Frame)                       : 0.333
  22. Stream size                              : 8.81 GiB (89%)
  23. Title                                    : Spanish
  24. Writing library                          : x264 core 158 r2984+47 456d10a t_mod_New [<a href="/cdn-cgi/l/email-protection" class="__cf_email__" data-cfemail="3d0d105f54497d5c5151">High@L4.1</a> X86_64]
  25. Encoding settings                        : cabac=1 / ref=5 / deblock=1:-3:-3 / analyse=0x3:0x133 / me=umh / subme=11 / psy=1 / fade_compensate=0.00 / psy_rd=1.05:0.00 / mixed_ref=1 / me_range=32 / chroma_me=1 / trellis=2 / 8x8dct=1 / cqm=0 / deadzone=21,11 / fast_pskip=0 / chroma_qp_offset=-2 / threads=6 / lookahead_threads=1 / sliced_threads=0 / nr=0 / decimate=0 / interlaced=0 / bluray_compat=0 / constrained_intra=0 / fgo=0 / bframes=7 / b_pyramid=2 / b_adapt=2 / b_bias=0 / direct=3 / weightb=1 / open_gop=0 / weightp=2 / keyint=250 / keyint_min=24 / scenecut=40 / intra_refresh=0 / rc_lookahead=250 / rc=crf / mbtree=0 / crf=16.5000 / qcomp=0.60 / qpmin=0:0:0 / qpmax=69:69:69 / qpstep=4 / vbv_maxrate=62500 / vbv_bufsize=78125 / crf_max=0.0 / nal_hrd=none / filler=0 / ip_ratio=1.30 / pb_ratio=1.20 / aq=3:0.80 / aq-sensitivity=10.00 / aq-factor=1.00:1.00:1.00 / aq2=0 / aq3=0 / zones=556,588,crf=14.5/733,770,crf=14.5/811,1044,crf=14.5/15522,17604,crf=14.5/19666,19719,crf=14.5/24790,24861,crf=14.5/53624,54728,crf=14.5/55914,56986,crf=14.5/59073,59657,crf=14.5/61498,61580,crf=14.5/67825,67867,crf=14.5/75389,75667,crf=14.5/76279,76664,crf=14.5/77028,77614,crf=14.5/80035,80143,crf=14.5/85253,86969,crf=14.5/87127,87166,crf=14.5/90295,91678,crf=14.5/96258,97750,crf=14.5/103672,104191,crf=14.5/116687,116937,crf=14.5/124933,125108,crf=14.5
  26. Language                                 : Spanish
  27. Default                                  : Yes
  28. Forced                                   : No
  29. Color range                              : Limited
  30. Color primaries                          : BT.709
  31. Matrix coefficients                      : BT.709

  32. Audio
  33. ID                                       : 2
  34. Format                                   : DTS
  35. Format/Info                              : Digital Theater Systems
  36. Codec ID                                 : A_DTS
  37. Duration                                 : 1 h 42 min
  38. Bit rate mode                            : Constant
  39. Bit rate                                 : 1 509 kb/s
  40. Channel(s)                               : 6 channels
  41. Channel layout                           : C L R Ls Rs LFE
  42. Sampling rate                            : 48.0 kHz
  43. Frame rate                               : 93.750 FPS (512 SPF)
  44. Bit depth                                : 24 bits
  45. Compression mode                         : Lossy
  46. Stream size                              : 1.08 GiB (11%)
  47. Title                                    : Spanish
  48. Language                                 : Spanish
  49. Default                                  : Yes
  50. Forced                                   : No

  51. Text #1
  52. ID                                       : 3
  53. Format                                   : UTF-8
  54. Codec ID                                 : S_TEXT/UTF8
  55. Codec ID/Info                            : UTF-8 Plain Text
  56. Duration                                 : 1 h 38 min
  57. Bit rate                                 : 79 b/s
  58. Count of elements                        : 1776
  59. Stream size                              : 57.6 KiB (0%)
  60. Title                                    : English
  61. Language                                 : English
  62. Default                                  : Yes
  63. Forced                                   : No

  64. Text #2
  65. ID                                       : 4
  66. Format                                   : UTF-8
  67. Codec ID                                 : S_TEXT/UTF8
  68. Codec ID/Info                            : UTF-8 Plain Text
  69. Duration                                 : 1 h 38 min
  70. Bit rate                                 : 59 b/s
  71. Count of elements                        : 1798
  72. Stream size                              : 43.0 KiB (0%)
  73. Title                                    : Simplified Chinese
  74. Language                                 : Chinese
  75. Default                                  : No
  76. Forced                                   : No

  77. Text #3
  78. ID                                       : 5
  79. Format                                   : UTF-8
  80. Codec ID                                 : S_TEXT/UTF8
  81. Codec ID/Info                            : UTF-8 Plain Text
  82. Duration                                 : 1 h 38 min
  83. Bit rate                                 : 60 b/s
  84. Count of elements                        : 1799
  85. Stream size                              : 43.8 KiB (0%)
  86. Title                                    : Traditional Chinese
  87. Language                                 : Chinese
  88. Default                                  : No
  89. Forced                                   : No

  90. Text #4
  91. ID                                       : 6
  92. Format                                   : PGS
  93. Muxing mode                              : zlib
  94. Codec ID                                 : S_HDMV/PGS
  95. Codec ID/Info                            : Picture based subtitle format used on BDs/HD-DVDs
  96. Duration                                 : 1 h 42 min
  97. Bit rate                                 : 55.5 kb/s
  98. Count of elements                        : 3788
  99. Stream size                              : 40.5 MiB (0%)
  100. Title                                    : Spanish
  101. Language                                 : Spanish
  102. Default                                  : No
  103. Forced                                   : No

  104. Menu
  105. 00:00:00.000                             : en:Chapter 01
  106. 00:08:28.708                             : en:Chapter 02
  107. 00:16:48.875                             : en:Chapter 03
  108. 00:24:51.958                             : en:Chapter 04
  109. 00:33:14.042                             : en:Chapter 05
  110. 00:40:33.917                             : en:Chapter 06
  111. 00:49:03.833                             : en:Chapter 07
  112. 00:57:20.083                             : en:Chapter 08
  113. 01:06:32.917                             : en:Chapter 09
  114. 01:15:58.417                             : en:Chapter 10
  115. 01:23:36.208                             : en:Chapter 11
  116. 01:32:07.417                             : en:Chapter 12
复制代码

你玩什么? Get.Her.If.You.Can.2019.SPANISH.1080p.BluRay.x264.DTS-PTer 9.90GB-2.png 你玩什么? Get.Her.If.You.Can.2019.SPANISH.1080p.BluRay.x264.DTS-PTer 9.90GB-3.png 你玩什么? Get.Her.If.You.Can.2019.SPANISH.1080p.BluRay.x264.DTS-PTer 9.90GB-4.png






开通VIP免费下载本站所有资源---点这里
新手必看:资源下载常见问题---点这里
回复

使用道具 举报

发表于 2019-9-13 01:15:10 | 显示全部楼层

这个帖子不回对不起自己!我想我是一天也不能离开蓝光电影网
开通VIP免费下载本站所有资源---点这里
新手必看:资源下载常见问题---点这里
回复 支持 反对

使用道具 举报

懒得打字嘛,点击右侧快捷回复 【右侧内容,后台自定义】
您需要登录后才可以回帖 登录 | 立即加入

本版积分规则

现在加入蓝光电影网,注册一个账号

QQ| 手机版|小黑屋| 蓝光电影网 |网站地图

Copyright © 2015-2019 Comsenz Inc.  Template by 蓝光电影网 All Rights Reserved.

Powered by 蓝光电影网 X3.4

特别声明:本站所有资源均由网上收集而来,版权归原影音公司所有,如果侵犯了你的权益,请通知我们,我们会及时删除侵权内容.

快速回复 返回顶部 返回列表