找回密码

蓝光电影网

查看: 111|回复: 0

[动作] 精英出击/总司令 General.Commander.2019.720p.BluRay.x264-GUACAMOLE 3.28GB

[复制链接]

 成长值: 1420

发表于 2019-9-11 14:08:07 | 显示全部楼层 |阅读模式
精英出击/总司令 General.Commander.2019.720p.BluRay.x264-GUACAMOLE 3.28GB-1.png

译  名 精英出击 / 总司令
片  名 General Commander
年  代 2019
产  地 英国 / 匈牙利 / 菲律宾
类  别 动作 / 犯罪
语  言 英语
上映日期 2019-05-28(美国)
IMDb评分  3.9/10 from 269 users
IMDb链接  http://www.imdb.com/title/tt7043534
豆瓣评分 0/10 from 0 users
豆瓣链接 https://movie.douban.com/subject/27611392/
片  长 81分钟
导  演 Philippe Martinez
编  剧 Philippe Martinez / Lisa Gabriel / Megan Brown
主  演 史蒂文·席格 Steven Seagal
       索尼亚·考琳 Sonia Couling
       Bryon Gibson
       Mica Javier
       Soraya Torrens
       Jai Day
       Megan Brown
       Chris Pasone
       Billy Ray
       罗恩·斯穆安伯格 Ron Smoorenburg
       Valerio Zechini


标  签 2018 | 英国 | 电视剧 | 犯罪 | 未看 | 动作 | 剧情

简  介  

  本剧讲述了GRS特工杰克?亚历山大(史蒂文?席格 Steven Seagal 饰)在一名香港富翁的资助下,带领着他年轻的队员们打击最为险恶的罪犯的故事。
  1. Video
  2. ID                                       : 1
  3. Format                                   : AVC
  4. Format/Info                              : Advanced Video Codec
  5. Format profile                           : <a href="/cdn-cgi/l/email-protection" class="__cf_email__" data-cfemail="6820010f0028245c4659">High@L4.1</a>
  6. Format settings                          : CABAC / 5 Ref Frames
  7. Format settings, CABAC                   : Yes
  8. Format settings, Reference frames        : 5 frames
  9. Codec ID                                 : V_MPEG4/ISO/AVC
  10. Duration                                 : 1 h 25 min
  11. Bit rate                                 : 4 824 kb/s
  12. Width                                    : 1 280 pixels
  13. Height                                   : 536 pixels
  14. Display aspect ratio                     : 2.40:1
  15. Frame rate mode                          : Constant
  16. Frame rate                               : 23.976 (24000/1001) FPS
  17. Color space                              : YUV
  18. Chroma subsampling                       : 4:2:0
  19. Bit depth                                : 8 bits
  20. Scan type                                : Progressive
  21. Bits/(Pixel*Frame)                       : 0.293
  22. Stream size                              : 2.89 GiB (88%)
  23. Writing library                          : x264 core 157 r2969 d4099dd
  24. Encoding settings                        : cabac=1 / ref=5 / deblock=1:0:0 / analyse=0x3:0x113 / me=umh / subme=8 / psy=1 / psy_rd=1.00:0.00 / mixed_ref=1 / me_range=16 / chroma_me=1 / trellis=2 / 8x8dct=1 / cqm=0 / deadzone=21,11 / fast_pskip=0 / chroma_qp_offset=-2 / threads=17 / lookahead_threads=2 / sliced_threads=0 / nr=0 / decimate=1 / interlaced=0 / bluray_compat=0 / constrained_intra=0 / bframes=3 / b_pyramid=2 / b_adapt=1 / b_bias=0 / direct=1 / weightb=1 / open_gop=0 / weightp=2 / keyint=250 / keyint_min=23 / scenecut=40 / intra_refresh=0 / rc_lookahead=50 / rc=2pass / mbtree=1 / bitrate=4824 / ratetol=1.0 / qcomp=0.60 / qpmin=0 / qpmax=69 / qpstep=4 / cplxblur=20.0 / qblur=0.5 / ip_ratio=1.40 / aq=1:1.00
  25. Default                                  : Yes
  26. Forced                                   : No

  27. Audio
  28. ID                                       : 2
  29. Format                                   : AC-3
  30. Format/Info                              : Audio Coding 3
  31. Commercial name                          : Dolby Digital
  32. Codec ID                                 : A_AC3
  33. Duration                                 : 1 h 25 min
  34. Bit rate mode                            : Constant
  35. Bit rate                                 : 640 kb/s
  36. Channel(s)                               : 6 channels
  37. Channel layout                           : L R C LFE Ls Rs
  38. Sampling rate                            : 48.0 kHz
  39. Frame rate                               : 31.250 FPS (1536 SPF)
  40. Bit depth                                : 16 bits
  41. Compression mode                         : Lossy
  42. Stream size                              : 392 MiB (12%)
  43. Language                                 : English
  44. Service kind                             : Complete Main
  45. Default                                  : Yes
  46. Forced                                   : No

  47. Text
  48. ID                                       : 3
  49. Format                                   : UTF-8
  50. Codec ID                                 : S_TEXT/UTF8
  51. Codec ID/Info                            : UTF-8 Plain Text
  52. Duration                                 : 1 h 8 min
  53. Bit rate                                 : 7 b/s
  54. Count of elements                        : 151
  55. Stream size                              : 3.65 KiB (0%)
  56. Language                                 : English
  57. Default                                  : Yes
  58. Forced                                   : Yes

  59. Menu
  60. 00:00:00.000                             : en:00:00:00.000
  61. 00:13:48.828                             : en:00:13:48.828
  62. 00:25:04.586                             : en:00:25:04.586
  63. 00:36:05.789                             : en:00:36:05.789
  64. 00:47:17.334                             : en:00:47:17.334
  65. 00:58:56.867                             : en:00:58:56.867
  66. 01:11:05.052                             : en:01:11:05.052
  67. 01:22:28.777                             : en:01:22:28.777
复制代码

37492339800086332847_medium.jpg





开通VIP免费下载本站所有资源---点这里
新手必看:资源下载常见问题---点这里
回复

使用道具 举报

懒得打字嘛,点击右侧快捷回复 【右侧内容,后台自定义】
您需要登录后才可以回帖 登录 | 立即加入

本版积分规则

现在加入蓝光电影网,注册一个账号

QQ| 手机版|小黑屋| 蓝光电影网 |网站地图

Copyright © 2015-2019 Comsenz Inc.  Template by 蓝光电影网 All Rights Reserved.

Powered by 蓝光电影网 X3.4

特别声明:本站所有资源均由网上收集而来,版权归原影音公司所有,如果侵犯了你的权益,请通知我们,我们会及时删除侵权内容.

快速回复 返回顶部 返回列表