找回密码

蓝光电影网

查看: 69|回复: 2

[动画] 勇敢传说 Brave.2012.1080p.BluRay.x264.DTS-HD.MA.7.1-SWTYBLZ 7.61GB

[复制链接]

 成长值: 1420

发表于 2019-9-11 14:05:41 | 显示全部楼层 |阅读模式
勇敢传说 Brave.2012.1080p.BluRay.x264.DTS-HD.MA.7.1-SWTYBLZ 7.61GB-1.png

译  名 勇敢传说 / Bear and the Bow / 勇敢 / 勇敢传说之幻险森林(港) / 勇敢的公主 / 熊与弓
片  名 Brave
年  代 2012
产  地 美国
类  别 喜剧 / 动画 / 奇幻 / 冒险
语  言 英语
上映日期 2012-06-10(西雅图电影节) / 2012-06-19(中国大陆) / 2012-06-22(美国)
IMDb评分  7.1/10 from 343939 users
IMDb链接  http://www.imdb.com/title/tt1217209
豆瓣评分 7.5/10 from 114455 users
豆瓣链接 https://movie.douban.com/subject/3036473/
片  长 93分钟
导  演 马克?安德鲁斯 Mark Andrews / 布兰达?查普 Brenda Chapman / 史蒂夫·普切尔 Steve Purcell
编  剧 布兰达?查普 Brenda Chapman / 艾琳·梅琪 Irene Mecchi / 马克?安德鲁斯 Mark Andrews / 史蒂夫·普切尔 Steve Purcell
主  演 凯莉·麦克唐纳 Kelly Macdonald
       艾玛·汤普森 Emma Thompson
       比利·康诺利 Billy Connolly
       朱丽·沃特斯 Julie Walters
       罗彼·考特拉尼 Robbie Coltrane
       凯文·麦克基德 Kevin McKidd
       克雷格·费格森 Craig Ferguson
       莎莉·金霍恩 Sally Kinghorn
       伊丽·弗雷泽 Eilidh Fraser
       佩吉·巴克 Peigi Barker
       史蒂芬·克里 Steven Cree
       卡勒姆·奥尼尔 Callum O'Neill
       帕特里克·杜尔 Patrick Doyle
       约翰·拉岑贝格 John Ratzenberger
       史蒂夫·波赛尔 Steve Purcell


标  签 动画 | 美国 | 皮克斯 | 亲情 | Disney | 2012 | 喜剧 | 成长

简  介  

  长久以来,那些伟大的战争故事和魔幻的传说一直被人们口口相传,一代又一代,生生不息在这片延绵又神秘的苏格兰高地上。迪士尼?皮克斯的又一诚意之作,勇敢的梅莉达抗争传统束缚,追求自由从而改变自己命运的瑰丽故事横空出世。梅莉达是佛格国王与艾莉诺皇后的长女,她是一名出色的弓箭手, 也有任性不羁,《勇敢传说》讲述的就是她的冒险故事。
  为了走出自己的生活之路,梅莉达拒绝承袭对于3个部落首领(丁瓦、麦金、麦葛)来说神圣不可侵犯的古老传统。梅莉达的鲁莽给她的王国带去了混乱和灾难,当她向森林中的女巫寻求帮助的时候,女巫却实施了灾难性的魔咒。
  接踵而来的灾难逼迫梅莉达使出浑身解术——包括自己的三胞胎弟弟们——来帮助她解除咒语,寻获勇气的真谛。
  由马克?安德鲁斯与布兰达?查普联合执导,凯瑟琳?萨拉斐安监制的这部《勇敢传说》,充满了伟大冒险传奇,打造出经典的人物角色,当然还有备受全球影迷期待的皮克斯式幽默。

获奖情况  

  第85届奥斯卡金像奖(2013)
  最佳动画长片 布兰达?查普曼 / 马克?安德鲁斯

  第70届金球奖(2013)
  电影类 最佳动画长片

  第40届动画安妮奖(2013)
  最佳动画长片(提名)
  最佳编剧(提名) 布兰达?查普曼 / 马克?安德鲁斯 / 艾琳·梅琪
  最佳配音(提名) 凯莉·麦克唐纳
  最佳配乐(提名) 帕特里克·道尔 / 马克?安德鲁斯
  最佳剪辑 David Suther
  最佳艺术指导 Steve Pilcher
  最佳动画角色(提名) Jaime Landes
  最佳动画效果(提名) Keith Daniel Klohn / Bill Watral

  第78届纽约影评人协会奖(2012)
  最佳动画片(提名)

  第18届美国评论家选择电影奖(2013)
  最佳动画片(提名)
  最佳歌曲(提名)

  第17届金卫星奖(2012)
  电影部门 最佳动画片(提名)
  电影部门 最佳原创歌曲(提名)

  第11届华盛顿影评人协会奖(2012)
  最佳动画片(提名)

  第17届圣地亚哥影评人协会奖(2012)
  最佳动画片(提名)

  第25届芝加哥影评人协会奖(2012)
  最佳动画片(提名)

  第12届凤凰城影评人协会奖(2012)
  最佳动画片(提名)

  第3届豆瓣电影鑫像奖(2013)
  鑫豆单元 最佳动画长片(提名)
  鑫豆单元 最佳歌曲(提名)
  1. Video
  2. ID                                       : 1
  3. Format                                   : AVC
  4. Format/Info                              : Advanced Video Codec
  5. Format profile                           : <a href="/cdn-cgi/l/email-protection" class="__cf_email__" data-cfemail="9ed6f7f9f6ded2aab0af">High@L4.1</a>
  6. Format settings                          : CABAC / 5 Ref Frames
  7. Format settings, CABAC                   : Yes
  8. Format settings, Reference frames        : 5 frames
  9. Codec ID                                 : V_MPEG4/ISO/AVC
  10. Duration                                 : 1 h 33 min
  11. Bit rate                                 : 7 571 kb/s
  12. Width                                    : 1 920 pixels
  13. Height                                   : 802 pixels
  14. Display aspect ratio                     : 2.40:1
  15. Frame rate mode                          : Constant
  16. Frame rate                               : 23.976 (24000/1001) FPS
  17. Color space                              : YUV
  18. Chroma subsampling                       : 4:2:0
  19. Bit depth                                : 8 bits
  20. Scan type                                : Progressive
  21. Bits/(Pixel*Frame)                       : 0.205
  22. Stream size                              : 4.95 GiB (65%)
  23. Title                                    : Brave.2012.1080p.BluRay.x264.DTS-HD.MA.7.1-SWTYBLZ
  24. Writing library                          : x264 core 157 r2935 545de2f
  25. Encoding settings                        : cabac=1 / ref=5 / deblock=1:1:1 / analyse=0x3:0x133 / me=umh / subme=10 / psy=1 / psy_rd=0.40:0.00 / mixed_ref=1 / me_range=48 / chroma_me=1 / trellis=2 / 8x8dct=1 / cqm=0 / deadzone=21,11 / fast_pskip=1 / chroma_qp_offset=-2 / threads=25 / lookahead_threads=6 / sliced_threads=0 / nr=0 / decimate=0 / interlaced=0 / bluray_compat=0 / constrained_intra=0 / bframes=10 / b_pyramid=2 / b_adapt=2 / b_bias=0 / direct=3 / weightb=1 / open_gop=0 / weightp=2 / keyint=250 / keyint_min=23 / scenecut=40 / intra_refresh=0 / rc_lookahead=60 / rc=crf / mbtree=1 / crf=13.0 / qcomp=0.60 / qpmin=0 / qpmax=69 / qpstep=4 / ip_ratio=1.40 / aq=1:0.60
  26. Default                                  : Yes
  27. Forced                                   : No

  28. Audio
  29. ID                                       : 2
  30. Format                                   : DTS XLL
  31. Format/Info                              : Digital Theater Systems
  32. Commercial name                          : DTS-HD Master Audio
  33. Codec ID                                 : A_DTS
  34. Duration                                 : 1 h 33 min
  35. Bit rate mode                            : Variable
  36. Bit rate                                 : 4 050 kb/s
  37. Channel(s)                               : 8 channels
  38. Channel layout                           : C L R LFE Lb Rb Lss Rss
  39. Sampling rate                            : 48.0 kHz
  40. Frame rate                               : 93.750 FPS (512 SPF)
  41. Bit depth                                : 24 bits
  42. Compression mode                         : Lossless
  43. Stream size                              : 2.65 GiB (35%)
  44. Title                                    : Brave.2012.1080p.BluRay.x264.DTS-HD.MA.7.1-SWTYBLZ
  45. Language                                 : English
  46. Default                                  : No
  47. Forced                                   : No

  48. Text #1
  49. ID                                       : 3
  50. Format                                   : UTF-8
  51. Codec ID                                 : S_TEXT/UTF8
  52. Codec ID/Info                            : UTF-8 Plain Text
  53. Duration                                 : 1 h 31 min
  54. Bit rate                                 : 42 b/s
  55. Count of elements                        : 1015
  56. Stream size                              : 28.3 KiB (0%)
  57. Title                                    : English-SRT
  58. Language                                 : English
  59. Default                                  : Yes
  60. Forced                                   : No

  61. Text #2
  62. ID                                       : 4
  63. Format                                   : PGS
  64. Muxing mode                              : zlib
  65. Codec ID                                 : S_HDMV/PGS
  66. Codec ID/Info                            : Picture based subtitle format used on BDs/HD-DVDs
  67. Duration                                 : 1 h 32 min
  68. Bit rate                                 : 36.3 kb/s
  69. Count of elements                        : 2802
  70. Stream size                              : 24.0 MiB (0%)
  71. Title                                    : English-PGS
  72. Language                                 : English
  73. Default                                  : No
  74. Forced                                   : No

  75. Text #3
  76. ID                                       : 5
  77. Format                                   : PGS
  78. Muxing mode                              : zlib
  79. Codec ID                                 : S_HDMV/PGS
  80. Codec ID/Info                            : Picture based subtitle format used on BDs/HD-DVDs
  81. Duration                                 : 1 h 32 min
  82. Bit rate                                 : 24.8 kb/s
  83. Count of elements                        : 1772
  84. Stream size                              : 16.4 MiB (0%)
  85. Title                                    : French-PGS
  86. Language                                 : French
  87. Default                                  : No
  88. Forced                                   : No

  89. Text #4
  90. ID                                       : 6
  91. Format                                   : PGS
  92. Muxing mode                              : zlib
  93. Codec ID                                 : S_HDMV/PGS
  94. Codec ID/Info                            : Picture based subtitle format used on BDs/HD-DVDs
  95. Duration                                 : 1 h 32 min
  96. Bit rate                                 : 22.5 kb/s
  97. Count of elements                        : 1472
  98. Stream size                              : 14.8 MiB (0%)
  99. Title                                    : Spanish-PGS
  100. Language                                 : Spanish
  101. Default                                  : No
  102. Forced                                   : No

  103. Menu
  104. 00:00:00.000                             : en:Chapter 01
  105. 00:04:23.346                             : en:Chapter 02
  106. 00:09:18.266                             : en:Chapter 03
  107. 00:12:54.190                             : en:Chapter 04
  108. 00:14:01.090                             : en:Chapter 05
  109. 00:16:10.970                             : en:Chapter 06
  110. 00:17:37.514                             : en:Chapter 07
  111. 00:22:56.625                             : en:Chapter 08
  112. 00:27:23.725                             : en:Chapter 09
  113. 00:28:52.063                             : en:Chapter 10
  114. 00:30:55.687                             : en:Chapter 11
  115. 00:34:00.955                             : en:Chapter 12
  116. 00:36:04.328                             : en:Chapter 13
  117. 00:39:07.762                             : en:Chapter 14
  118. 00:41:55.930                             : en:Chapter 15
  119. 00:43:28.564                             : en:Chapter 16
  120. 00:47:06.573                             : en:Chapter 17
  121. 00:48:23.150                             : en:Chapter 18
  122. 00:51:04.895                             : en:Chapter 19
  123. 00:52:34.693                             : en:Chapter 20
  124. 00:54:01.863                             : en:Chapter 21
  125. 00:54:46.491                             : en:Chapter 22
  126. 00:57:31.698                             : en:Chapter 23
  127. 00:59:00.995                             : en:Chapter 24
  128. 01:02:49.015                             : en:Chapter 25
  129. 01:03:28.221                             : en:Chapter 26
  130. 01:09:58.319                             : en:Chapter 27
  131. 01:10:38.108                             : en:Chapter 28
  132. 01:12:36.352                             : en:Chapter 29
  133. 01:13:40.332                             : en:Chapter 30
  134. 01:15:36.323                             : en:Chapter 31
  135. 01:16:59.740                             : en:Chapter 32
  136. 01:17:37.736                             : en:Chapter 33
  137. 01:19:48.950                             : en:Chapter 34
  138. 01:23:17.617                             : en:Chapter 35
  139. 01:24:39.324                             : en:Chapter 36
  140. 01:32:53.401                             : en:Chapter 37
复制代码

勇敢传说 Brave.2012.1080p.BluRay.x264.DTS-HD.MA.7.1-SWTYBLZ 7.61GB-2.png 勇敢传说 Brave.2012.1080p.BluRay.x264.DTS-HD.MA.7.1-SWTYBLZ 7.61GB-3.png 38663317747646772167_medium.png






开通VIP免费下载本站所有资源---点这里
新手必看:资源下载常见问题---点这里
回复

使用道具 举报

发表于 前天 18:12 | 显示全部楼层
楼主发贴辛苦了,谢谢楼主分享!我觉得蓝光电影网是注册对了!
开通VIP免费下载本站所有资源---点这里
新手必看:资源下载常见问题---点这里
回复 支持 反对

使用道具 举报

发表于 前天 21:52 | 显示全部楼层
楼主发贴辛苦了,谢谢楼主分享!我觉得蓝光电影网是注册对了!
开通VIP免费下载本站所有资源---点这里
新手必看:资源下载常见问题---点这里
回复 支持 反对

使用道具 举报

懒得打字嘛,点击右侧快捷回复 【右侧内容,后台自定义】
您需要登录后才可以回帖 登录 | 立即加入

本版积分规则

现在加入蓝光电影网,注册一个账号

QQ| 手机版|小黑屋| 蓝光电影网 |网站地图

Copyright © 2015-2019 Comsenz Inc.  Template by 蓝光电影网 All Rights Reserved.

Powered by 蓝光电影网 X3.4

特别声明:本站所有资源均由网上收集而来,版权归原影音公司所有,如果侵犯了你的权益,请通知我们,我们会及时删除侵权内容.

快速回复 返回顶部 返回列表