找回密码

蓝光电影网

查看: 194|回复: 2

[动作] 杀戮都市2 Gantz.2.Perfect.Answer.2011.iNTERNAL.1080p.BluRay.x264-REGRET 12.03GB

[复制链接]

 成长值: 1420

发表于 2019-9-11 14:02:39 | 显示全部楼层 |阅读模式
杀戮都市2 Gantz.2.Perfect.Answer.2011.iNTERNAL.1080p.BluRay.x264-REGRET 12.03GB-1.png

译  名 杀戮都市2
片  名 GANTZ PERFECT ANSWER
年  代 2011
产  地 日本
类  别 动作 / 科幻
语  言 日语
上映日期 2011-04-23(日本)
IMDb评分  6.3/10 from 3576 users
IMDb链接  http://www.imdb.com/title/tt1525836
豆瓣评分 6.6/10 from 14118 users
豆瓣链接 https://movie.douban.com/subject/4079119/
片  长 141分钟
导  演 佐藤信介 Shinsuke Sato
编  剧 渡边雄介 Y?suke Watanabe / 奥浩哉 Hiroya Oku
主  演 二宫和也 Kazunari Ninomiya
       松山研一 Ken'ichi Matsuyama
       吉高由里子 Yuriko Yoshitaka
       本乡奏多 Kanata Hong?
       夏菜 Natsuna
       绫野刚 G? Ayano
       水泽奈子 Nako Mizusawa
       千阪健介
       白石隼也 Shun'ya Shiraishi
       伊藤步 Ayumi Ito
       田口智朗 Tomorowo Taguchi
       山田孝之 Takayuki Yamada
       户田菜穗 Naho Toda


标  签 二宫和也 | 日本电影 | 日本 | 科幻 | 松山健一 | 2011 | 本乡奏多 | 电影

简  介  

  为了复活死去的好友加藤胜(松山健一 饰)以及其他逝者,玄野计(二宫和也 饰)与战友们5个月来不断与各种外星人作战,赢取更多的分数。在这一过程中,不断有新丁加入Gantz,而新丁似乎又对这个看似陌生的异类世界有着莫名的熟悉感。某天,本应死去的加藤突然出现在现实世界,这令玄野等人大为不解。而之后的战斗也显现出了诸多奇怪之处,比如在与黑衣星人的战斗中,敌我双方竟然同时出现在人满为患的地铁车厢内,以致于血流成河,引起巨大伤亡。现实与虚幻的界限开始模糊,来势汹汹的外星人也准备向Gantz的总部发起最后的攻击……
  本片根据奥浩哉的同名漫画改编。
  1. Video
  2. ID                                       : 1
  3. Format                                   : AVC
  4. Format/Info                              : Advanced Video Codec
  5. Format profile                           : <a href="/cdn-cgi/l/email-protection" class="__cf_email__" data-cfemail="1951707e7159552d3728">High@L4.1</a>
  6. Format settings                          : CABAC / 4 Ref Frames
  7. Format settings, CABAC                   : Yes
  8. Format settings, Reference frames        : 4 frames
  9. Codec ID                                 : V_MPEG4/ISO/AVC
  10. Duration                                 : 2 h 21 min
  11. Bit rate                                 : 9 120 kb/s
  12. Width                                    : 1 920 pixels
  13. Height                                   : 1 040 pixels
  14. Display aspect ratio                     : 1.85:1
  15. Frame rate mode                          : Constant
  16. Frame rate                               : 23.976 (24000/1001) FPS
  17. Color space                              : YUV
  18. Chroma subsampling                       : 4:2:0
  19. Bit depth                                : 8 bits
  20. Scan type                                : Progressive
  21. Bits/(Pixel*Frame)                       : 0.190
  22. Stream size                              : 9.03 GiB (75%)
  23. Writing library                          : x264 core 157 r2970 5493be8
  24. Encoding settings                        : cabac=1 / ref=4 / deblock=1:-3:-3 / analyse=0x3:0x133 / me=umh / subme=9 / psy=1 / psy_rd=1.00:0.00 / mixed_ref=1 / me_range=16 / chroma_me=1 / trellis=2 / 8x8dct=1 / cqm=0 / deadzone=21,11 / fast_pskip=0 / chroma_qp_offset=-2 / threads=24 / lookahead_threads=2 / sliced_threads=0 / nr=0 / decimate=1 / interlaced=0 / bluray_compat=0 / constrained_intra=0 / bframes=3 / b_pyramid=2 / b_adapt=1 / b_bias=0 / direct=3 / weightb=1 / open_gop=0 / weightp=2 / keyint=240 / keyint_min=24 / scenecut=40 / intra_refresh=0 / rc_lookahead=50 / rc=2pass / mbtree=1 / bitrate=9120 / ratetol=1.0 / qcomp=0.60 / qpmin=0 / qpmax=69 / qpstep=4 / cplxblur=20.0 / qblur=0.5 / ip_ratio=1.40 / aq=1:1.00
  25. Language                                 : English
  26. Default                                  : Yes
  27. Forced                                   : No

  28. Audio #1
  29. ID                                       : 2
  30. Format                                   : DTS
  31. Format/Info                              : Digital Theater Systems
  32. Codec ID                                 : A_DTS
  33. Duration                                 : 2 h 21 min
  34. Bit rate mode                            : Constant
  35. Bit rate                                 : 1 509 kb/s
  36. Channel(s)                               : 6 channels
  37. Channel layout                           : C L R Ls Rs LFE
  38. Sampling rate                            : 48.0 kHz
  39. Frame rate                               : 93.750 FPS (512 SPF)
  40. Bit depth                                : 24 bits
  41. Compression mode                         : Lossy
  42. Stream size                              : 1.49 GiB (12%)
  43. Language                                 : Japanese
  44. Default                                  : Yes
  45. Forced                                   : No

  46. Audio #2
  47. ID                                       : 3
  48. Format                                   : DTS
  49. Format/Info                              : Digital Theater Systems
  50. Codec ID                                 : A_DTS
  51. Duration                                 : 2 h 21 min
  52. Bit rate mode                            : Constant
  53. Bit rate                                 : 1 509 kb/s
  54. Channel(s)                               : 6 channels
  55. Channel layout                           : C L R Ls Rs LFE
  56. Sampling rate                            : 48.0 kHz
  57. Frame rate                               : 93.750 FPS (512 SPF)
  58. Bit depth                                : 24 bits
  59. Compression mode                         : Lossy
  60. Stream size                              : 1.49 GiB (12%)
  61. Language                                 : English
  62. Default                                  : No
  63. Forced                                   : No

  64. Text #1
  65. ID                                       : 4
  66. Format                                   : UTF-8
  67. Codec ID                                 : S_TEXT/UTF8
  68. Codec ID/Info                            : UTF-8 Plain Text
  69. Duration                                 : 2 h 21 min
  70. Bit rate                                 : 21 b/s
  71. Count of elements                        : 798
  72. Stream size                              : 22.5 KiB (0%)
  73. Title                                    : English
  74. Language                                 : English
  75. Default                                  : Yes
  76. Forced                                   : Yes

  77. Text #2
  78. ID                                       : 5
  79. Format                                   : UTF-8
  80. Codec ID                                 : S_TEXT/UTF8
  81. Codec ID/Info                            : UTF-8 Plain Text
  82. Duration                                 : 2 h 20 min
  83. Bit rate                                 : 3 b/s
  84. Count of elements                        : 112
  85. Stream size                              : 3.13 KiB (0%)
  86. Title                                    : Forced subtitles for English audio
  87. Language                                 : English
  88. Default                                  : No
  89. Forced                                   : No

  90. Menu
  91. 00:00:00.000                             : en:00:00:00.000
  92. 00:02:37.199                             : en:00:02:37.199
  93. 00:09:39.996                             : en:00:09:39.996
  94. 00:15:27.009                             : en:00:15:27.009
  95. 00:22:49.910                             : en:00:22:49.910
  96. 00:29:45.117                             : en:00:29:45.117
  97. 00:40:05.820                             : en:00:40:05.820
  98. 00:47:14.040                             : en:00:47:14.040
  99. 00:50:37.201                             : en:00:50:37.201
  100. 00:58:09.361                             : en:00:58:09.361
  101. 01:07:23.248                             : en:01:07:23.248
  102. 01:15:48.878                             : en:01:15:48.878
  103. 01:23:47.940                             : en:01:23:47.940
  104. 01:35:11.623                             : en:01:35:11.623
  105. 01:40:08.085                             : en:01:40:08.085
  106. 01:49:02.953                             : en:01:49:02.953
  107. 01:57:25.455                             : en:01:57:25.455
  108. 02:08:28.701                             : en:02:08:28.701
  109. 02:16:46.698                             : en:02:16:46.698
  110. 02:21:29.481                             : en:02:21:29.481
复制代码

杀戮都市2 Gantz.2.Perfect.Answer.2011.iNTERNAL.1080p.BluRay.x264-REGRET 12.03GB-2.png






开通VIP免费下载本站所有资源---点这里
新手必看:资源下载常见问题---点这里
回复

使用道具 举报

发表于 2019-9-11 19:54:28 | 显示全部楼层

这个帖子不回对不起自己!我想我是一天也不能离开蓝光电影网
开通VIP免费下载本站所有资源---点这里
新手必看:资源下载常见问题---点这里
回复 支持 反对

使用道具 举报

已抛锚 成长值: 220

发表于 2019-9-11 23:38:03 | 显示全部楼层
杀戮都市2
开通VIP免费下载本站所有资源---点这里
新手必看:资源下载常见问题---点这里
回复

使用道具 举报

懒得打字嘛,点击右侧快捷回复 【右侧内容,后台自定义】
您需要登录后才可以回帖 登录 | 立即加入

本版积分规则

现在加入蓝光电影网,注册一个账号

QQ| 手机版|小黑屋| 蓝光电影网 |网站地图

Copyright © 2015-2019 Comsenz Inc.  Template by 蓝光电影网 All Rights Reserved.

Powered by 蓝光电影网 X3.4

特别声明:本站所有资源均由网上收集而来,版权归原影音公司所有,如果侵犯了你的权益,请通知我们,我们会及时删除侵权内容.

快速回复 返回顶部 返回列表