找回密码

蓝光电影网

查看: 218|回复: 6

[10bit.SDR] 头脑特工队/大脑内外 Inside.Out.2015.2160p.BluRay.x265.10bit.SDR.TrueHD.7.1.Atmos-SWTYBLZ 23.15GB

[复制链接]

 成长值: 1345

发表于 6 天前 | 显示全部楼层 |阅读模式
头脑特工队/大脑内外 Inside.Out.2015.2160p.BluRay.x265.10bit.SDR.TrueHD.7.1.Atmos-SWTYBLZ 23.15GB-1.png

译  名 头脑特工队 / 大脑内外 / 大脑环游记 / 头脑大作战 / 头脑总动员 / 玩转脑朋友(港) / 由内而外 / 脑中小小人 / 脑筋急转弯(台)
片  名 Inside Out
年  代 2015
产  地 美国
类  别 喜剧 / 动画 / 冒险
语  言 英语
上映日期 2015-06-19(美国) / 2015-10-06(中国大陆)
IMDb评分  8.2/10 from 547847 users
IMDb链接  http://www.imdb.com/title/tt2096673
豆瓣评分 8.7/10 from 347407 users
豆瓣链接 https://movie.douban.com/subject/10533913/
片  长 95分钟
导  演 彼特·道格特 Pete Docter / 罗纳尔多·德尔·卡门 Ronaldo Del Carmen
编  剧 彼特·道格特 Pete Docter / 罗纳尔多·德尔·卡门 Ronaldo Del Carmen / Meg LeFauve / 乔什·库雷 Josh Cooley / 迈克尔·阿恩特 Michael Arndt / 西蒙·里奇 Simon Rich / 鲍勃·彼德森 Bob Peterson / 比尔·哈德尔 Bill Hader / 艾米·波勒 Amy Poehler
主  演 艾米·波勒 Amy Poehler
       菲利丝·史密斯 Phyllis Smith
       理查德·坎德 Richard Kind
       比尔·哈德尔 Bill Hader
       刘易斯·布莱克 Lewis Black
       敏迪·卡灵 Mindy Kaling
       凯特林·迪亚斯 Kaitlyn Dias
       戴安·琳恩 Diane Lane
       凯尔·麦克拉克伦 Kyle MacLachlan
       波拉·庞德斯通 Paula Poundstone
       鲍比·莫伊尼汉 Bobby Moynihan
       保拉·佩尔 Paula Pell
       大卫·戈尔兹 Dave Goelz
       弗兰克·奥兹 Frank Oz
       乔什·库雷 Josh Cooley
       弗利 Flea
       约翰·拉岑贝格 John Ratzenberger
       卡洛斯·阿拉斯拉奇 Carlos Alazraqui
       皮特·萨加尔 Peter Sagal
       拉什达·琼斯 Rashida Jones
       罗里·艾伦 Lori Alan
       约翰·齐甘 John Cygan
       雪莉·琳恩 Sherry Lynn
       拉瑞恩·纽曼 Laraine Newman
       帕丽斯·冯·戴克 Paris Van Dyke


标  签 动画 | 成长 | 美国 | Pixar | 温情 | 喜剧 | Disney | 心理

简  介  

  可爱的小女孩莱莉(凯特林·迪亚斯 Kaitlyn Dias 配音)出生在明尼苏达州一个平凡的家庭中,从小她在父母的呵护下长大,脑海中保存着无数美好甜蜜的回忆。当然这些记忆还与几个莱莉未曾谋面的伙伴息息相关,他们就是人类的五种主要情绪:乐乐(艾米·波勒 Amy Poehl er 配音)、忧忧(菲利丝·史密斯 Phyllis Smith 配音)、怕怕(比尔·哈德尔 Bill Hader 配音)、厌厌(敏迪·卡灵 Mindy Kaling 配音)和怒怒(刘易斯·布莱克 Lewis Black 配音)。乐乐作为团队的领导,她协同其他伙伴致力于为小主人营造更多美好的珍贵回忆。某天,莱莉随同父母搬到了旧金山,肮脏逼仄的公寓、陌生的校园环境、逐渐失落的友情都让莱莉无所适从,她的负面情绪逐渐累积,内心美好的世界渐次崩塌。
  为了保护这一切,乐乐只有行动起来……

获奖情况  

  第88届奥斯卡金像奖(2016)
  最佳原创剧本(提名) 梅格·勒福夫 / 彼特·道格特 / 罗纳尔多·德尔·卡门 / 乔什·库雷
  最佳动画长片 乔纳斯·里维拉 / 彼特·道格特

  第73届金球奖(2016)
  电影类 最佳动画长片

  第69届英国电影学院奖(2016)
  电影奖 最佳原创剧本(提名) 梅格·勒福夫 / 彼特·道格特 / 乔什·库雷
  电影奖 最佳动画片 彼特·道格特

  第43届动画安妮奖(2016)
  最佳动画长片
  最佳导演 彼特·道格特
  最佳编剧 梅格·勒福夫 / 彼特·道格特 / 乔什·库雷
  最佳配音 菲利丝·史密斯
  最佳配音(提名) 艾米·波勒
  最佳配乐
  最佳剪辑
  最佳分镜
  最佳艺术指导
  最佳动画角色
  最佳角色设计
  最佳动画效果(提名)

  第27届美国制片人工会奖(2016)
  最佳动画片制片人奖

  第66届美国剪辑工会奖(2016)
  动画片最佳剪辑

  第14届美国视觉效果协会奖(2016)
  最佳动画电影视觉效果(提名)
  最佳动画电影CG动画角色
  最佳动画电影CG背景(提名)
  最佳动画电影模拟动画效果(提名)

  第81届纽约影评人协会奖(2015)
  最佳动画片

  第87届美国国家评论协会奖(2015)
  最佳动画片
  年度佳片

  第21届美国评论家选择电影奖(2016)
  最佳喜剧片(提名)
  最佳动画片
  最佳原创剧本(提名) 梅格·勒福夫 / 乔什·库雷

  第16届美国电影学会奖(2015)
  年度佳片

  第20届金卫星奖(2016)
  电影部门 最佳动画片

  第19届好莱坞电影奖(2015)
  年度动画 彼特·道格特

  第14届华盛顿影评人协会奖(2015)
  最佳原创剧本
  最佳动画片

  第36届波士顿影评人协会奖(2015)
  最佳动画片

  第28届芝加哥影评人协会奖(2015)
  最佳动画片

  第19届美国在线影评人协会奖(2015)
  最佳影片(提名)
  最佳原创剧本(提名) 梅格·勒福夫 / 彼特·道格特 / 罗纳尔多·德尔·卡门 / 乔什·库雷
  最佳动画片

  第17届美国青少年选择奖(2015)
  Choice Movie: Hissy Fit(提名) 刘易斯·布莱克
  最佳暑期电影(提名)
  最佳暑期电影女演员(提名) 艾米·波勒

  第2届豆瓣电影年度榜单(2015)
  评分最高的动画片
  10月最受关注电影(提名)

  第6届豆瓣电影鑫像奖(2016)
  鑫豆单元 最佳影片(外语)(提名)
  鑫豆单元 最佳动画长片
  1. Video
  2. ID                                       : 1
  3. Format                                   : HEVC
  4. Format/Info                              : High Efficiency Video Coding
  5. Format profile                           : Main <a href="/cdn-cgi/l/email-protection" class="__cf_email__" data-cfemail="5e6f6e1e126b706f">[email protected]</a>@High
  6. Codec ID                                 : V_MPEGH/ISO/HEVC
  7. Duration                                 : 1 h 34 min
  8. Bit rate                                 : 27.6 Mb/s
  9. Width                                    : 3 840 pixels
  10. Height                                   : 2 160 pixels
  11. Display aspect ratio                     : 16:9
  12. Frame rate mode                          : Constant
  13. Frame rate                               : 23.976 (24000/1001) FPS
  14. Color space                              : YUV
  15. Chroma subsampling                       : 4:2:0
  16. Bit depth                                : 10 bits
  17. Bits/(Pixel*Frame)                       : 0.139
  18. Stream size                              : 18.3 GiB (79%)
  19. Title                                    : Inside.Out.2015.2160p.BluRay.x265.10bit.SDR.TrueHD.7.1.Atmos-SWTYBLZ
  20. Writing library                          : x265 3.0ed72af837053:[Windows][GCC 8.2.0][64 bit] 10bit
  21. Encoding settings                        : cpuid=1111039 / frame-threads=16 / numa-pools=44,44 / wpp / no-pmode / no-pme / no-psnr / no-ssim / log-level=2 / input-csp=1 / input-res=3840x2160 / interlace=0 / total-frames=136176 / level-idc=51 / high-tier=1 / uhd-bd=0 / ref=3 / no-allow-non-conformance / repeat-headers / annexb / aud / hrd / info / hash=0 / no-temporal-layers / no-open-gop / min-keyint=1 / keyint=24 / gop-lookahead=0 / bframes=6 / b-adapt=2 / b-pyramid / bframe-bias=0 / rc-lookahead=25 / lookahead-slices=4 / scenecut=40 / radl=0 / no-splice / no-intra-refresh / ctu=64 / min-cu-size=8 / no-rect / no-amp / max-tu-size=32 / tu-inter-depth=1 / tu-intra-depth=1 / limit-tu=0 / rdoq-level=0 / dynamic-rd=0.00 / no-ssim-rd / signhide / no-tskip / nr-intra=0 / nr-inter=0 / no-constrained-intra / strong-intra-smoothing / max-merge=2 / limit-refs=3 / no-limit-modes / me=1 / subme=2 / merange=57 / temporal-mvp / weightp / no-weightb / no-analyze-src-pics / deblock=1:1 / no-sao / no-sao-non-deblock / rd=3 / no-early-skip / rskip / no-fast-intra / no-tskip-fast / no-cu-lossless / no-b-intra / no-splitrd-skip / rdpenalty=0 / psy-rd=0.40 / psy-rdoq=0.00 / no-rd-refine / no-lossless / cbqpoffs=0 / crqpoffs=0 / rc=crf / crf=14.0 / qcomp=0.60 / qpstep=4 / stats-write=0 / stats-read=0 / vbv-maxrate=160000 / vbv-bufsize=160000 / vbv-init=0.9 / crf-max=0.0 / crf-min=0.0 / ipratio=1.40 / pbratio=1.30 / aq-mode=1 / aq-strength=0.40 / cutree / zone-count=0 / no-strict-cbr / qg-size=32 / no-rc-grain / qpmax=69 / qpmin=0 / no-const-vbv / sar=1 / overscan=0 / videoformat=5 / range=0 / colorprim=2 / transfer=2 / colormatrix=2 / chromaloc=0 / display-window=0 / max-cll=0,0 / min-luma=0 / max-luma=1023 / log2-max-poc-lsb=8 / vui-timing-info / vui-hrd-info / slices=1 / opt-qp-pps / opt-ref-list-length-pps / no-multi-pass-opt-rps / scenecut-bias=0.05 / no-opt-cu-delta-qp / no-aq-motion / no-hdr / no-hdr-opt / no-dhdr10-opt / no-idr-recovery-sei / analysis-reuse-level=5 / scale-factor=0 / refine-intra=0 / refine-inter=0 / refine-mv=0 / refine-ctu-distortion=0 / no-limit-sao / ctu-info=0 / no-lowpass-dct / refine-analysis-type=0 / copy-pic=1 / max-ausize-factor=1.0 / no-dynamic-refine / no-single-sei / no-hevc-aq / qp-adaptation-range=1.00
  22. Default                                  : Yes
  23. Forced                                   : No

  24. Audio #1
  25. ID                                       : 2
  26. Format                                   : MLP FBA 16-ch
  27. Format/Info                              : Meridian Lossless Packing FBA with 16-channel presentation
  28. Commercial name                          : Dolby TrueHD with Dolby Atmos
  29. Codec ID                                 : A_TRUEHD
  30. Duration                                 : 1 h 34 min
  31. Bit rate mode                            : Variable
  32. Bit rate                                 : 6 422 kb/s
  33. Maximum bit rate                         : 8 226 kb/s
  34. Channel(s)                               : 8 channels
  35. Channel layout                           : L R C LFE Ls Rs Lb Rb
  36. Sampling rate                            : 48.0 kHz
  37. Frame rate                               : 1 200.000 FPS (40 SPF)
  38. Compression mode                         : Lossless
  39. Stream size                              : 4.25 GiB (18%)
  40. Title                                    : Inside.Out.2015.2160p.BluRay.x265.10bit.SDR.TrueHD.7.1.Atmos-SWTYBLZ
  41. Language                                 : English
  42. Default                                  : Yes
  43. Forced                                   : No
  44. Number of dynamic objects                : 13
  45. Bed channel count                        : 1 channel
  46. Bed channel configuration                : LFE

  47. Audio #2
  48. ID                                       : 3
  49. Format                                   : AC-3
  50. Format/Info                              : Audio Coding 3
  51. Commercial name                          : Dolby Digital
  52. Codec ID                                 : A_AC3
  53. Duration                                 : 1 h 34 min
  54. Bit rate mode                            : Constant
  55. Bit rate                                 : 640 kb/s
  56. Channel(s)                               : 6 channels
  57. Channel layout                           : L R C LFE Ls Rs
  58. Sampling rate                            : 48.0 kHz
  59. Frame rate                               : 31.250 FPS (1536 SPF)
  60. Bit depth                                : 16 bits
  61. Compression mode                         : Lossy
  62. Stream size                              : 433 MiB (2%)
  63. Title                                    : Inside.Out.2015.2160p.BluRay.x265.10bit.SDR.TrueHD.7.1.Atmos-SWTYBLZ
  64. Language                                 : English
  65. Service kind                             : Complete Main
  66. Default                                  : No
  67. Forced                                   : No

  68. Text #1
  69. ID                                       : 4
  70. Format                                   : UTF-8
  71. Codec ID                                 : S_TEXT/UTF8
  72. Codec ID/Info                            : UTF-8 Plain Text
  73. Duration                                 : 1 h 26 min
  74. Bit rate                                 : 76 b/s
  75. Count of elements                        : 1633
  76. Stream size                              : 48.8 KiB (0%)
  77. Title                                    : English-SRT
  78. Language                                 : English
  79. Default                                  : Yes
  80. Forced                                   : No

  81. Text #2
  82. ID                                       : 5
  83. Format                                   : PGS
  84. Muxing mode                              : zlib
  85. Codec ID                                 : S_HDMV/PGS
  86. Codec ID/Info                            : Picture based subtitle format used on BDs/HD-DVDs
  87. Duration                                 : 1 h 27 min
  88. Bit rate                                 : 57.1 kb/s
  89. Count of elements                        : 3690
  90. Stream size                              : 35.7 MiB (0%)
  91. Title                                    : English-PGS
  92. Language                                 : English
  93. Default                                  : No
  94. Forced                                   : No

  95. Text #3
  96. ID                                       : 6
  97. Format                                   : PGS
  98. Muxing mode                              : zlib
  99. Codec ID                                 : S_HDMV/PGS
  100. Codec ID/Info                            : Picture based subtitle format used on BDs/HD-DVDs
  101. Duration                                 : 1 h 26 min
  102. Bit rate                                 : 44.5 kb/s
  103. Count of elements                        : 2534
  104. Stream size                              : 27.7 MiB (0%)
  105. Title                                    : French-PGS
  106. Language                                 : French
  107. Default                                  : No
  108. Forced                                   : No

  109. Text #4
  110. ID                                       : 7
  111. Format                                   : PGS
  112. Muxing mode                              : zlib
  113. Codec ID                                 : S_HDMV/PGS
  114. Codec ID/Info                            : Picture based subtitle format used on BDs/HD-DVDs
  115. Duration                                 : 1 h 26 min
  116. Bit rate                                 : 45.6 kb/s
  117. Count of elements                        : 2496
  118. Stream size                              : 28.4 MiB (0%)
  119. Title                                    : Spanish-PGS
  120. Language                                 : Spanish
  121. Default                                  : No
  122. Forced                                   : No

  123. Menu
  124. 00:00:00.000                             : en:Chapter 01
  125. 00:07:22.692                             : en:Chapter 02
  126. 00:11:36.404                             : en:Chapter 03
  127. 00:15:46.153                             : en:Chapter 04
  128. 00:20:01.950                             : en:Chapter 05
  129. 00:25:21.061                             : en:Chapter 06
  130. 00:26:46.896                             : en:Chapter 07
  131. 00:30:10.183                             : en:Chapter 08
  132. 00:34:45.792                             : en:Chapter 09
  133. 00:36:02.285                             : en:Chapter 10
  134. 00:37:45.304                             : en:Chapter 11
  135. 00:41:26.984                             : en:Chapter 12
  136. 00:43:35.613                             : en:Chapter 13
  137. 00:45:19.258                             : en:Chapter 14
  138. 00:46:51.725                             : en:Chapter 15
  139. 00:50:02.332                             : en:Chapter 16
  140. 00:51:34.341                             : en:Chapter 17
  141. 00:56:11.868                             : en:Chapter 18
  142. 01:00:03.683                             : en:Chapter 19
  143. 01:01:17.507                             : en:Chapter 20
  144. 01:03:50.368                             : en:Chapter 21
  145. 01:06:27.191                             : en:Chapter 22
  146. 01:11:15.437                             : en:Chapter 23
  147. 01:13:40.541                             : en:Chapter 24
  148. 01:15:38.617                             : en:Chapter 25
  149. 01:19:59.961                             : en:Chapter 26
  150. 01:23:57.198                             : en:Chapter 27
  151. 01:26:18.214                             : en:Chapter 28
复制代码



头脑特工队/大脑内外 Inside.Out.2015.2160p.BluRay.x265.10bit.SDR.TrueHD.7.1.Atmos-SWTYBLZ 23.15GB-8.png
头脑特工队/大脑内外 Inside.Out.2015.2160p.BluRay.x265.10bit.SDR.TrueHD.7.1.Atmos-SWTYBLZ 23.15GB-2.png 头脑特工队/大脑内外 Inside.Out.2015.2160p.BluRay.x265.10bit.SDR.TrueHD.7.1.Atmos-SWTYBLZ 23.15GB-3.png 头脑特工队/大脑内外 Inside.Out.2015.2160p.BluRay.x265.10bit.SDR.TrueHD.7.1.Atmos-SWTYBLZ 23.15GB-4.png 头脑特工队/大脑内外 Inside.Out.2015.2160p.BluRay.x265.10bit.SDR.TrueHD.7.1.Atmos-SWTYBLZ 23.15GB-5.png 头脑特工队/大脑内外 Inside.Out.2015.2160p.BluRay.x265.10bit.SDR.TrueHD.7.1.Atmos-SWTYBLZ 23.15GB-6.png 头脑特工队/大脑内外 Inside.Out.2015.2160p.BluRay.x265.10bit.SDR.TrueHD.7.1.Atmos-SWTYBLZ 23.15GB-7.png






开通VIP免费下载本站所有资源---点这里
新手必看:资源下载、资源播放、字幕使用、等常见问题---点这里
回复

使用道具 举报

发表于 5 天前 | 显示全部楼层

楼主太厉害了!楼主,电影应该很好看我觉得蓝光电影网真是个好地方!
开通VIP免费下载本站所有资源---点这里
新手必看:资源下载、资源播放、字幕使用、等常见问题---点这里
回复 支持 反对

使用道具 举报

发表于 5 天前 | 显示全部楼层

我看不错噢 谢谢楼主!蓝光电影网越来越好!
开通VIP免费下载本站所有资源---点这里
新手必看:资源下载、资源播放、字幕使用、等常见问题---点这里
回复 支持 反对

使用道具 举报

发表于 5 天前 | 显示全部楼层

找了很久,谢谢楼主
开通VIP免费下载本站所有资源---点这里
新手必看:资源下载、资源播放、字幕使用、等常见问题---点这里
回复 支持 反对

使用道具 举报

发表于 5 天前 | 显示全部楼层

楼主,大恩不言谢了!蓝光电影网是最棒的!
开通VIP免费下载本站所有资源---点这里
新手必看:资源下载、资源播放、字幕使用、等常见问题---点这里
回复 支持 反对

使用道具 举报

发表于 5 天前 | 显示全部楼层
找了好久,终于找到蓝光版的,谢谢楼主!
开通VIP免费下载本站所有资源---点这里
新手必看:资源下载、资源播放、字幕使用、等常见问题---点这里
回复 支持 反对

使用道具 举报

发表于 3 天前 | 显示全部楼层

感谢楼主的无私分享!要想蓝光电影网好 就靠你我他
开通VIP免费下载本站所有资源---点这里
新手必看:资源下载、资源播放、字幕使用、等常见问题---点这里
回复 支持 反对

使用道具 举报

懒得打字嘛,点击右侧快捷回复 【右侧内容,后台自定义】
您需要登录后才可以回帖 登录 | 立即加入

本版积分规则

现在加入蓝光电影网,注册一个账号

QQ| 手机版|小黑屋| 蓝光电影网 |网站地图

Copyright © 2015-2019 Comsenz Inc.  Template by 蓝光电影网 All Rights Reserved.

Powered by 蓝光电影网 X3.4

特别声明:本站所有资源均由网上收集而来,版权归原影音公司所有,如果侵犯了你的权益,请通知我们,我们会及时删除侵权内容.

快速回复 返回顶部 返回列表