找回密码

蓝光电影网

查看: 78|回复: 3

[8bit.SDR] 头脑特工队/大脑内外 Inside.Out.2015.2160p.BluRay.x264.8bit.SDR.TrueHD.7.1.Atmos-SWTYBLZ 21.79GB

[复制链接]

 成长值: 1345

发表于 6 天前 | 显示全部楼层 |阅读模式
头脑特工队/大脑内外 Inside.Out.2015.2160p.BluRay.x264.8bit.SDR.TrueHD.7.1.Atmos-SWTYBLZ 21.79GB-1.png

译  名 头脑特工队 / 大脑内外 / 大脑环游记 / 头脑大作战 / 头脑总动员 / 玩转脑朋友(港) / 由内而外 / 脑中小小人 / 脑筋急转弯(台)
片  名 Inside Out
年  代 2015
产  地 美国
类  别 喜剧 / 动画 / 冒险
语  言 英语
上映日期 2015-06-19(美国) / 2015-10-06(中国大陆)
IMDb评分  8.2/10 from 547847 users
IMDb链接  http://www.imdb.com/title/tt2096673
豆瓣评分 8.7/10 from 347407 users
豆瓣链接 https://movie.douban.com/subject/10533913/
片  长 95分钟
导  演 彼特·道格特 Pete Docter / 罗纳尔多·德尔·卡门 Ronaldo Del Carmen
编  剧 彼特·道格特 Pete Docter / 罗纳尔多·德尔·卡门 Ronaldo Del Carmen / Meg LeFauve / 乔什·库雷 Josh Cooley / 迈克尔·阿恩特 Michael Arndt / 西蒙·里奇 Simon Rich / 鲍勃·彼德森 Bob Peterson / 比尔·哈德尔 Bill Hader / 艾米·波勒 Amy Poehler
主  演 艾米·波勒 Amy Poehler
       菲利丝·史密斯 Phyllis Smith
       理查德·坎德 Richard Kind
       比尔·哈德尔 Bill Hader
       刘易斯·布莱克 Lewis Black
       敏迪·卡灵 Mindy Kaling
       凯特林·迪亚斯 Kaitlyn Dias
       戴安·琳恩 Diane Lane
       凯尔·麦克拉克伦 Kyle MacLachlan
       波拉·庞德斯通 Paula Poundstone
       鲍比·莫伊尼汉 Bobby Moynihan
       保拉·佩尔 Paula Pell
       大卫·戈尔兹 Dave Goelz
       弗兰克·奥兹 Frank Oz
       乔什·库雷 Josh Cooley
       弗利 Flea
       约翰·拉岑贝格 John Ratzenberger
       卡洛斯·阿拉斯拉奇 Carlos Alazraqui
       皮特·萨加尔 Peter Sagal
       拉什达·琼斯 Rashida Jones
       罗里·艾伦 Lori Alan
       约翰·齐甘 John Cygan
       雪莉·琳恩 Sherry Lynn
       拉瑞恩·纽曼 Laraine Newman
       帕丽斯·冯·戴克 Paris Van Dyke


标  签 动画 | 成长 | 美国 | Pixar | 温情 | 喜剧 | Disney | 心理

简  介  

  可爱的小女孩莱莉(凯特林·迪亚斯 Kaitlyn Dias 配音)出生在明尼苏达州一个平凡的家庭中,从小她在父母的呵护下长大,脑海中保存着无数美好甜蜜的回忆。当然这些记忆还与几个莱莉未曾谋面的伙伴息息相关,他们就是人类的五种主要情绪:乐乐(艾米·波勒 Amy Poehl er 配音)、忧忧(菲利丝·史密斯 Phyllis Smith 配音)、怕怕(比尔·哈德尔 Bill Hader 配音)、厌厌(敏迪·卡灵 Mindy Kaling 配音)和怒怒(刘易斯·布莱克 Lewis Black 配音)。乐乐作为团队的领导,她协同其他伙伴致力于为小主人营造更多美好的珍贵回忆。某天,莱莉随同父母搬到了旧金山,肮脏逼仄的公寓、陌生的校园环境、逐渐失落的友情都让莱莉无所适从,她的负面情绪逐渐累积,内心美好的世界渐次崩塌。
  为了保护这一切,乐乐只有行动起来……

获奖情况  

  第88届奥斯卡金像奖(2016)
  最佳原创剧本(提名) 梅格·勒福夫 / 彼特·道格特 / 罗纳尔多·德尔·卡门 / 乔什·库雷
  最佳动画长片 乔纳斯·里维拉 / 彼特·道格特

  第73届金球奖(2016)
  电影类 最佳动画长片

  第69届英国电影学院奖(2016)
  电影奖 最佳原创剧本(提名) 梅格·勒福夫 / 彼特·道格特 / 乔什·库雷
  电影奖 最佳动画片 彼特·道格特

  第43届动画安妮奖(2016)
  最佳动画长片
  最佳导演 彼特·道格特
  最佳编剧 梅格·勒福夫 / 彼特·道格特 / 乔什·库雷
  最佳配音 菲利丝·史密斯
  最佳配音(提名) 艾米·波勒
  最佳配乐
  最佳剪辑
  最佳分镜
  最佳艺术指导
  最佳动画角色
  最佳角色设计
  最佳动画效果(提名)

  第27届美国制片人工会奖(2016)
  最佳动画片制片人奖

  第66届美国剪辑工会奖(2016)
  动画片最佳剪辑

  第14届美国视觉效果协会奖(2016)
  最佳动画电影视觉效果(提名)
  最佳动画电影CG动画角色
  最佳动画电影CG背景(提名)
  最佳动画电影模拟动画效果(提名)

  第81届纽约影评人协会奖(2015)
  最佳动画片

  第87届美国国家评论协会奖(2015)
  最佳动画片
  年度佳片

  第21届美国评论家选择电影奖(2016)
  最佳喜剧片(提名)
  最佳动画片
  最佳原创剧本(提名) 梅格·勒福夫 / 乔什·库雷

  第16届美国电影学会奖(2015)
  年度佳片

  第20届金卫星奖(2016)
  电影部门 最佳动画片

  第19届好莱坞电影奖(2015)
  年度动画 彼特·道格特

  第14届华盛顿影评人协会奖(2015)
  最佳原创剧本
  最佳动画片

  第36届波士顿影评人协会奖(2015)
  最佳动画片

  第28届芝加哥影评人协会奖(2015)
  最佳动画片

  第19届美国在线影评人协会奖(2015)
  最佳影片(提名)
  最佳原创剧本(提名) 梅格·勒福夫 / 彼特·道格特 / 罗纳尔多·德尔·卡门 / 乔什·库雷
  最佳动画片

  第17届美国青少年选择奖(2015)
  Choice Movie: Hissy Fit(提名) 刘易斯·布莱克
  最佳暑期电影(提名)
  最佳暑期电影女演员(提名) 艾米·波勒

  第2届豆瓣电影年度榜单(2015)
  评分最高的动画片
  10月最受关注电影(提名)

  第6届豆瓣电影鑫像奖(2016)
  鑫豆单元 最佳影片(外语)(提名)
  鑫豆单元 最佳动画长片
  1. Video
  2. ID                                       : 1
  3. Format                                   : AVC
  4. Format/Info                              : Advanced Video Codec
  5. Format profile                           : <a href="/cdn-cgi/l/email-protection" class="__cf_email__" data-cfemail="236b4a444b636f160d12">[email protected]</a>
  6. Format settings                          : CABAC / 5 Ref Frames
  7. Format settings, CABAC                   : Yes
  8. Format settings, Reference frames        : 5 frames
  9. Codec ID                                 : V_MPEG4/ISO/AVC
  10. Duration                                 : 1 h 34 min
  11. Bit rate                                 : 25.6 Mb/s
  12. Width                                    : 3 840 pixels
  13. Height                                   : 2 160 pixels
  14. Display aspect ratio                     : 16:9
  15. Frame rate mode                          : Constant
  16. Frame rate                               : 23.976 (24000/1001) FPS
  17. Color space                              : YUV
  18. Chroma subsampling                       : 4:2:0
  19. Bit depth                                : 8 bits
  20. Scan type                                : Progressive
  21. Bits/(Pixel*Frame)                       : 0.129
  22. Stream size                              : 17.0 GiB (78%)
  23. Title                                    : Inside.Out.2015.2160p.BluRay.x264.8bit.SDR.TrueHD.7.1.Atmos-SWTYBLZ
  24. Writing library                          : x264 core 157 r2935 545de2f
  25. Encoding settings                        : cabac=1 / ref=5 / deblock=1:1:1 / analyse=0x3:0x113 / me=umh / subme=10 / psy=1 / psy_rd=0.40:0.00 / mixed_ref=1 / me_range=48 / chroma_me=1 / trellis=2 / 8x8dct=1 / cqm=0 / deadzone=21,11 / fast_pskip=1 / chroma_qp_offset=-2 / threads=48 / lookahead_threads=5 / sliced_threads=0 / nr=0 / decimate=0 / interlaced=0 / bluray_compat=0 / constrained_intra=0 / bframes=5 / b_pyramid=2 / b_adapt=2 / b_bias=0 / direct=3 / weightb=1 / open_gop=0 / weightp=2 / keyint=250 / keyint_min=23 / scenecut=40 / intra_refresh=0 / rc_lookahead=50 / rc=crf / mbtree=1 / crf=16.0 / qcomp=0.60 / qpmin=0 / qpmax=69 / qpstep=4 / ip_ratio=1.40 / aq=1:0.60
  26. Default                                  : Yes
  27. Forced                                   : No

  28. Audio #1
  29. ID                                       : 2
  30. Format                                   : MLP FBA 16-ch
  31. Format/Info                              : Meridian Lossless Packing FBA with 16-channel presentation
  32. Commercial name                          : Dolby TrueHD with Dolby Atmos
  33. Codec ID                                 : A_TRUEHD
  34. Duration                                 : 1 h 34 min
  35. Bit rate mode                            : Variable
  36. Bit rate                                 : 6 422 kb/s
  37. Maximum bit rate                         : 8 226 kb/s
  38. Channel(s)                               : 8 channels
  39. Channel layout                           : L R C LFE Ls Rs Lb Rb
  40. Sampling rate                            : 48.0 kHz
  41. Frame rate                               : 1 200.000 FPS (40 SPF)
  42. Compression mode                         : Lossless
  43. Stream size                              : 4.25 GiB (20%)
  44. Title                                    : Inside.Out.2015.2160p.BluRay.x264.8bit.SDR.TrueHD.7.1.Atmos-SWTYBLZ
  45. Language                                 : English
  46. Default                                  : Yes
  47. Forced                                   : No
  48. Number of dynamic objects                : 13
  49. Bed channel count                        : 1 channel
  50. Bed channel configuration                : LFE

  51. Audio #2
  52. ID                                       : 3
  53. Format                                   : AC-3
  54. Format/Info                              : Audio Coding 3
  55. Commercial name                          : Dolby Digital
  56. Codec ID                                 : A_AC3
  57. Duration                                 : 1 h 34 min
  58. Bit rate mode                            : Constant
  59. Bit rate                                 : 640 kb/s
  60. Channel(s)                               : 6 channels
  61. Channel layout                           : L R C LFE Ls Rs
  62. Sampling rate                            : 48.0 kHz
  63. Frame rate                               : 31.250 FPS (1536 SPF)
  64. Bit depth                                : 16 bits
  65. Compression mode                         : Lossy
  66. Stream size                              : 433 MiB (2%)
  67. Title                                    : Inside.Out.2015.2160p.BluRay.x264.8bit.SDR.TrueHD.7.1.Atmos-SWTYBLZ
  68. Language                                 : English
  69. Service kind                             : Complete Main
  70. Default                                  : No
  71. Forced                                   : No

  72. Text #1
  73. ID                                       : 4
  74. Format                                   : UTF-8
  75. Codec ID                                 : S_TEXT/UTF8
  76. Codec ID/Info                            : UTF-8 Plain Text
  77. Duration                                 : 1 h 26 min
  78. Bit rate                                 : 76 b/s
  79. Count of elements                        : 1633
  80. Stream size                              : 48.8 KiB (0%)
  81. Title                                    : English-SRT
  82. Language                                 : English
  83. Default                                  : Yes
  84. Forced                                   : No

  85. Text #2
  86. ID                                       : 5
  87. Format                                   : PGS
  88. Muxing mode                              : zlib
  89. Codec ID                                 : S_HDMV/PGS
  90. Codec ID/Info                            : Picture based subtitle format used on BDs/HD-DVDs
  91. Duration                                 : 1 h 27 min
  92. Bit rate                                 : 57.1 kb/s
  93. Count of elements                        : 3690
  94. Stream size                              : 35.7 MiB (0%)
  95. Title                                    : English-PGS
  96. Language                                 : English
  97. Default                                  : No
  98. Forced                                   : No

  99. Text #3
  100. ID                                       : 6
  101. Format                                   : PGS
  102. Muxing mode                              : zlib
  103. Codec ID                                 : S_HDMV/PGS
  104. Codec ID/Info                            : Picture based subtitle format used on BDs/HD-DVDs
  105. Duration                                 : 1 h 26 min
  106. Bit rate                                 : 44.5 kb/s
  107. Count of elements                        : 2534
  108. Stream size                              : 27.7 MiB (0%)
  109. Title                                    : French-PGS
  110. Language                                 : French
  111. Default                                  : No
  112. Forced                                   : No

  113. Text #4
  114. ID                                       : 7
  115. Format                                   : PGS
  116. Muxing mode                              : zlib
  117. Codec ID                                 : S_HDMV/PGS
  118. Codec ID/Info                            : Picture based subtitle format used on BDs/HD-DVDs
  119. Duration                                 : 1 h 26 min
  120. Bit rate                                 : 45.6 kb/s
  121. Count of elements                        : 2496
  122. Stream size                              : 28.4 MiB (0%)
  123. Title                                    : Spanish-PGS
  124. Language                                 : Spanish
  125. Default                                  : No
  126. Forced                                   : No

  127. Menu
  128. 00:00:00.000                             : en:Chapter 01
  129. 00:07:22.692                             : en:Chapter 02
  130. 00:11:36.404                             : en:Chapter 03
  131. 00:15:46.153                             : en:Chapter 04
  132. 00:20:01.950                             : en:Chapter 05
  133. 00:25:21.061                             : en:Chapter 06
  134. 00:26:46.896                             : en:Chapter 07
  135. 00:30:10.183                             : en:Chapter 08
  136. 00:34:45.792                             : en:Chapter 09
  137. 00:36:02.285                             : en:Chapter 10
  138. 00:37:45.304                             : en:Chapter 11
  139. 00:41:26.984                             : en:Chapter 12
  140. 00:43:35.613                             : en:Chapter 13
  141. 00:45:19.258                             : en:Chapter 14
  142. 00:46:51.725                             : en:Chapter 15
  143. 00:50:02.332                             : en:Chapter 16
  144. 00:51:34.341                             : en:Chapter 17
  145. 00:56:11.868                             : en:Chapter 18
  146. 01:00:03.683                             : en:Chapter 19
  147. 01:01:17.507                             : en:Chapter 20
  148. 01:03:50.368                             : en:Chapter 21
  149. 01:06:27.191                             : en:Chapter 22
  150. 01:11:15.437                             : en:Chapter 23
  151. 01:13:40.541                             : en:Chapter 24
  152. 01:15:38.617                             : en:Chapter 25
  153. 01:19:59.961                             : en:Chapter 26
  154. 01:23:57.198                             : en:Chapter 27
  155. 01:26:18.214                             : en:Chapter 28
复制代码

头脑特工队/大脑内外 Inside.Out.2015.2160p.BluRay.x264.8bit.SDR.TrueHD.7.1.Atmos-SWTYBLZ 21.79GB-2.png 头脑特工队/大脑内外 Inside.Out.2015.2160p.BluRay.x264.8bit.SDR.TrueHD.7.1.Atmos-SWTYBLZ 21.79GB-3.png 头脑特工队/大脑内外 Inside.Out.2015.2160p.BluRay.x264.8bit.SDR.TrueHD.7.1.Atmos-SWTYBLZ 21.79GB-4.png 头脑特工队/大脑内外 Inside.Out.2015.2160p.BluRay.x264.8bit.SDR.TrueHD.7.1.Atmos-SWTYBLZ 21.79GB-5.png 头脑特工队/大脑内外 Inside.Out.2015.2160p.BluRay.x264.8bit.SDR.TrueHD.7.1.Atmos-SWTYBLZ 21.79GB-6.png 头脑特工队/大脑内外 Inside.Out.2015.2160p.BluRay.x264.8bit.SDR.TrueHD.7.1.Atmos-SWTYBLZ 21.79GB-7.png 头脑特工队/大脑内外 Inside.Out.2015.2160p.BluRay.x264.8bit.SDR.TrueHD.7.1.Atmos-SWTYBLZ 21.79GB-8.png






开通VIP免费下载本站所有资源---点这里
新手必看:资源下载、资源播放、字幕使用、等常见问题---点这里
回复

使用道具 举报

发表于 5 天前 | 显示全部楼层
好片,感谢楼主分享!!!!
开通VIP免费下载本站所有资源---点这里
新手必看:资源下载、资源播放、字幕使用、等常见问题---点这里
回复 支持 反对

使用道具 举报

发表于 昨天 12:23 | 显示全部楼层
谢谢分享··
开通VIP免费下载本站所有资源---点这里
新手必看:资源下载、资源播放、字幕使用、等常见问题---点这里
回复 支持 反对

使用道具 举报

发表于 昨天 14:06 | 显示全部楼层

论坛不能没有像楼主这样的人才啊!我会一直支持蓝光电影网
开通VIP免费下载本站所有资源---点这里
新手必看:资源下载、资源播放、字幕使用、等常见问题---点这里
回复 支持 反对

使用道具 举报

懒得打字嘛,点击右侧快捷回复 【右侧内容,后台自定义】
您需要登录后才可以回帖 登录 | 立即加入

本版积分规则

现在加入蓝光电影网,注册一个账号

QQ| 手机版|小黑屋| 蓝光电影网 |网站地图

Copyright © 2015-2019 Comsenz Inc.  Template by 蓝光电影网 All Rights Reserved.

Powered by 蓝光电影网 X3.4

特别声明:本站所有资源均由网上收集而来,版权归原影音公司所有,如果侵犯了你的权益,请通知我们,我们会及时删除侵权内容.

快速回复 返回顶部 返回列表