找回密码

蓝光电影网

查看: 101|回复: 1

[10bit.SDR] 赌城风云/赌国风云 Casino.1995.2160p.BluRay.x265.10bit.SDR.DTS-X.7.1-SWTYBLZ 60.61GB

[复制链接]

 成长值: 1345

发表于 6 天前 | 显示全部楼层 |阅读模式
赌城风云/赌国风云 Casino.1995.2160p.BluRay.x265.10bit.SDR.DTS-X.7.1-SWTYBLZ 60.61GB-1.png

译  名 赌城风云 / 赌国风云 / 赌场
片  名 Casino
年  代 1995
产  地 美国 / 法国
类  别 剧情 / 传记 / 犯罪
语  言 英语 / 法语
上映日期 1995-11-22
IMDb评分  8.2/10 from 419999 users
IMDb链接  http://www.imdb.com/title/tt0112641
豆瓣评分 8.2/10 from 24223 users
豆瓣链接 https://movie.douban.com/subject/1299799/
片  长 178 分钟
导  演 Martin Scorsese
编  剧 Nicholas Pileggi / Martin Scorsese
主  演 Robert De Niro
       Sharon Stone
       Joe Pesci
       James Woods
       Frank Vincent


标  签 黑帮 | 罗伯特·德尼罗 | 马丁·斯科塞斯 | 美国 | 犯罪 | MartinScorsese | RobertDeNiro | 美国电影

简  介  

  电影《赌城风云》是由大导演马丁·斯科塞斯与老拍档罗伯特·德尼罗的第八度合作。萨姆·“埃斯”·罗思坦(罗伯特·德尼罗 Robert De Niro 饰)抱着“赌博是一桩需要认真对待的事业”这个信念经营这一家拉斯维加斯的赌场。这个信念使他的赌场生意兴隆,而也让他成为富四一方的大亨。但是自从他娶了妓女出身的金姬(莎朗·斯通 Sharon Stone 饰)后,一切都发生了改变。金姬是个贪得无厌,嗜好酒和毒品的美丽女人,对前男友旧情不忘甚至给他送钱;黑社会老大派来保护萨姆的尼基(乔·佩西 Joe Pesci 饰)总是触犯法律,被警方禁止踏足赌场,还不量力要当老板;萨姆开除了不负责任的雇员却得罪了当地的官员;更糟糕的是,萨姆和昔日的合作伙伴间的摩擦加剧。所有的一切,都使萨姆心神不宁……

获奖情况  

  第68届奥斯卡金像奖(1996)
  最佳女主角(提名) 莎朗·斯通
  1. Video
  2. ID                                       : 1
  3. Format                                   : HEVC
  4. Format/Info                              : High Efficiency Video Coding
  5. Format profile                           : Main <a href="/cdn-cgi/l/email-protection" class="__cf_email__" data-cfemail="bc8d8cfcf089928d">[email protected]</a>@High
  6. Codec ID                                 : V_MPEGH/ISO/HEVC
  7. Duration                                 : 2 h 58 min
  8. Bit rate                                 : 44.3 Mb/s
  9. Width                                    : 3 840 pixels
  10. Height                                   : 1 634 pixels
  11. Display aspect ratio                     : 2.35:1
  12. Frame rate mode                          : Constant
  13. Frame rate                               : 23.976 (24000/1001) FPS
  14. Color space                              : YUV
  15. Chroma subsampling                       : 4:2:0
  16. Bit depth                                : 10 bits
  17. Bits/(Pixel*Frame)                       : 0.294
  18. Stream size                              : 55.2 GiB (91%)
  19. Title                                    : Casino.1995.2160p.BluRay.x265.10bit.SDR.DTS-X.7.1-SWTYBLZ
  20. Writing library                          : x265 3.0ed72af837053:[Windows][GCC 8.2.0][64 bit] 10bit
  21. Encoding settings                        : cpuid=1111039 / frame-threads=16 / numa-pools=44,44 / wpp / no-pmode / no-pme / no-psnr / no-ssim / log-level=2 / input-csp=1 / input-res=3840x1634 / interlace=0 / total-frames=256391 / level-idc=51 / high-tier=1 / uhd-bd=0 / ref=3 / no-allow-non-conformance / repeat-headers / annexb / aud / hrd / info / hash=0 / no-temporal-layers / no-open-gop / min-keyint=1 / keyint=24 / gop-lookahead=0 / bframes=4 / b-adapt=2 / b-pyramid / bframe-bias=0 / rc-lookahead=25 / lookahead-slices=4 / scenecut=40 / radl=0 / no-splice / no-intra-refresh / ctu=64 / min-cu-size=8 / no-rect / no-amp / max-tu-size=32 / tu-inter-depth=1 / tu-intra-depth=1 / limit-tu=0 / rdoq-level=0 / dynamic-rd=0.00 / no-ssim-rd / signhide / no-tskip / nr-intra=0 / nr-inter=0 / no-constrained-intra / strong-intra-smoothing / max-merge=2 / limit-refs=3 / no-limit-modes / me=1 / subme=2 / merange=57 / temporal-mvp / weightp / no-weightb / no-analyze-src-pics / deblock=0:0 / no-sao / no-sao-non-deblock / rd=3 / no-early-skip / rskip / no-fast-intra / no-tskip-fast / no-cu-lossless / no-b-intra / no-splitrd-skip / rdpenalty=0 / psy-rd=2.00 / psy-rdoq=0.00 / no-rd-refine / no-lossless / cbqpoffs=0 / crqpoffs=0 / rc=crf / crf=16.0 / qcomp=0.60 / qpstep=4 / stats-write=0 / stats-read=0 / vbv-maxrate=160000 / vbv-bufsize=160000 / vbv-init=0.9 / crf-max=0.0 / crf-min=0.0 / ipratio=1.40 / pbratio=1.30 / aq-mode=1 / aq-strength=1.00 / cutree / zone-count=0 / no-strict-cbr / qg-size=32 / no-rc-grain / qpmax=69 / qpmin=0 / no-const-vbv / sar=1 / overscan=0 / videoformat=5 / range=0 / colorprim=2 / transfer=2 / colormatrix=2 / chromaloc=0 / display-window=0 / max-cll=0,0 / min-luma=0 / max-luma=1023 / log2-max-poc-lsb=8 / vui-timing-info / vui-hrd-info / slices=1 / opt-qp-pps / opt-ref-list-length-pps / no-multi-pass-opt-rps / scenecut-bias=0.05 / no-opt-cu-delta-qp / no-aq-motion / no-hdr / no-hdr-opt / no-dhdr10-opt / no-idr-recovery-sei / analysis-reuse-level=5 / scale-factor=0 / refine-intra=0 / refine-inter=0 / refine-mv=0 / refine-ctu-distortion=0 / no-limit-sao / ctu-info=0 / no-lowpass-dct / refine-analysis-type=0 / copy-pic=1 / max-ausize-factor=1.0 / no-dynamic-refine / no-single-sei / no-hevc-aq / qp-adaptation-range=1.00
  22. Language                                 : English
  23. Default                                  : Yes
  24. Forced                                   : No

  25. Audio #1
  26. ID                                       : 2
  27. Format                                   : DTS XLL X
  28. Format/Info                              : Digital Theater Systems
  29. Commercial name                          : DTS-HD Master Audio
  30. Codec ID                                 : A_DTS
  31. Duration                                 : 2 h 58 min
  32. Bit rate mode                            : Variable
  33. Bit rate                                 : 3 508 kb/s
  34. Channel(s)                               : 8 channels
  35. Channel(s)_Original                      : Object Based
  36. Channel layout                           : Object Based
  37. Sampling rate                            : 48.0 kHz
  38. Frame rate                               : 93.750 FPS (512 SPF)
  39. Bit depth                                : 24 bits
  40. Stream size                              : 4.37 GiB (7%)
  41. Title                                    : Casino.1995.2160p.BluRay.x265.10bit.SDR.DTS-X.7.1-SWTYBLZ
  42. Language                                 : English
  43. Default                                  : Yes
  44. Forced                                   : No

  45. Audio #2
  46. ID                                       : 3
  47. Format                                   : AC-3
  48. Format/Info                              : Audio Coding 3
  49. Commercial name                          : Dolby Digital
  50. Codec ID                                 : A_AC3
  51. Duration                                 : 2 h 58 min
  52. Bit rate mode                            : Constant
  53. Bit rate                                 : 640 kb/s
  54. Channel(s)                               : 6 channels
  55. Channel layout                           : L R C LFE Ls Rs
  56. Sampling rate                            : 48.0 kHz
  57. Frame rate                               : 31.250 FPS (1536 SPF)
  58. Bit depth                                : 16 bits
  59. Compression mode                         : Lossy
  60. Stream size                              : 816 MiB (1%)
  61. Title                                    : Casino.1995.2160p.BluRay.x265.10bit.SDR.DTS-X.7.1-SWTYBLZ
  62. Language                                 : English
  63. Service kind                             : Complete Main
  64. Default                                  : No
  65. Forced                                   : No

  66. Text #1
  67. ID                                       : 4
  68. Format                                   : UTF-8
  69. Codec ID                                 : S_TEXT/UTF8
  70. Codec ID/Info                            : UTF-8 Plain Text
  71. Duration                                 : 2 h 51 min
  72. Bit rate                                 : 99 b/s
  73. Count of elements                        : 2790
  74. Stream size                              : 125 KiB (0%)
  75. Title                                    : English-SRT
  76. Language                                 : English
  77. Default                                  : Yes
  78. Forced                                   : No

  79. Text #2
  80. ID                                       : 5
  81. Format                                   : PGS
  82. Muxing mode                              : zlib
  83. Codec ID                                 : S_HDMV/PGS
  84. Codec ID/Info                            : Picture based subtitle format used on BDs/HD-DVDs
  85. Duration                                 : 2 h 55 min
  86. Bit rate                                 : 66.1 kb/s
  87. Count of elements                        : 7288
  88. Stream size                              : 82.9 MiB (0%)
  89. Title                                    : English-PGS
  90. Language                                 : English
  91. Default                                  : No
  92. Forced                                   : No

  93. Text #3
  94. ID                                       : 6
  95. Format                                   : PGS
  96. Muxing mode                              : zlib
  97. Codec ID                                 : S_HDMV/PGS
  98. Codec ID/Info                            : Picture based subtitle format used on BDs/HD-DVDs
  99. Duration                                 : 2 h 55 min
  100. Bit rate                                 : 51.3 kb/s
  101. Count of elements                        : 5414
  102. Stream size                              : 64.5 MiB (0%)
  103. Title                                    : French-PGS
  104. Language                                 : French
  105. Default                                  : No
  106. Forced                                   : No

  107. Text #4
  108. ID                                       : 7
  109. Format                                   : PGS
  110. Muxing mode                              : zlib
  111. Codec ID                                 : S_HDMV/PGS
  112. Codec ID/Info                            : Picture based subtitle format used on BDs/HD-DVDs
  113. Duration                                 : 2 h 55 min
  114. Bit rate                                 : 39.8 kb/s
  115. Count of elements                        : 5252
  116. Stream size                              : 50.0 MiB (0%)
  117. Title                                    : Spanish-PGS
  118. Language                                 : Spanish
  119. Default                                  : No
  120. Forced                                   : No

  121. Text #5
  122. ID                                       : 8
  123. Format                                   : PGS
  124. Muxing mode                              : zlib
  125. Codec ID                                 : S_HDMV/PGS
  126. Codec ID/Info                            : Picture based subtitle format used on BDs/HD-DVDs
  127. Duration                                 : 2 h 57 min
  128. Bit rate                                 : 31.4 kb/s
  129. Count of elements                        : 4846
  130. Stream size                              : 39.9 MiB (0%)
  131. Title                                    : Japanese-PGS
  132. Language                                 : Japanese
  133. Default                                  : No
  134. Forced                                   : No

  135. Text #6
  136. ID                                       : 9
  137. Format                                   : PGS
  138. Muxing mode                              : zlib
  139. Codec ID                                 : S_HDMV/PGS
  140. Codec ID/Info                            : Picture based subtitle format used on BDs/HD-DVDs
  141. Duration                                 : 2 h 57 min
  142. Bit rate                                 : 53.3 kb/s
  143. Count of elements                        : 5520
  144. Stream size                              : 67.7 MiB (0%)
  145. Title                                    : Portuguese-PGS
  146. Language                                 : Portuguese
  147. Default                                  : No
  148. Forced                                   : No

  149. Menu
  150. 00:00:00.000                             : en:Chapter 01
  151. 00:04:55.461                             : en:Chapter 02
  152. 00:21:57.816                             : en:Chapter 03
  153. 00:27:49.542                             : en:Chapter 04
  154. 00:33:46.399                             : en:Chapter 05
  155. 00:38:56.834                             : en:Chapter 06
  156. 00:58:22.999                             : en:Chapter 07
  157. 01:06:10.967                             : en:Chapter 08
  158. 01:26:24.470                             : en:Chapter 09
  159. 01:31:49.545                             : en:Chapter 10
  160. 02:00:29.305                             : en:Chapter 11
  161. 02:14:10.125                             : en:Chapter 12
  162. 02:28:31.277                             : en:Chapter 13
  163. 02:39:55.711                             : en:Chapter 14
  164. 02:46:56.047                             : en:Chapter 15
  165. 02:50:12.035                             : en:Chapter 16
复制代码


赌城风云/赌国风云 Casino.1995.2160p.BluRay.x265.10bit.SDR.DTS-X.7.1-SWTYBLZ 60.61GB-4.png

赌城风云/赌国风云 Casino.1995.2160p.BluRay.x265.10bit.SDR.DTS-X.7.1-SWTYBLZ 60.61GB-5.png

赌城风云/赌国风云 Casino.1995.2160p.BluRay.x265.10bit.SDR.DTS-X.7.1-SWTYBLZ 60.61GB-6.png

赌城风云/赌国风云 Casino.1995.2160p.BluRay.x265.10bit.SDR.DTS-X.7.1-SWTYBLZ 60.61GB-7.png

赌城风云/赌国风云 Casino.1995.2160p.BluRay.x265.10bit.SDR.DTS-X.7.1-SWTYBLZ 60.61GB-8.png

赌城风云/赌国风云 Casino.1995.2160p.BluRay.x265.10bit.SDR.DTS-X.7.1-SWTYBLZ 60.61GB-2.png
赌城风云/赌国风云 Casino.1995.2160p.BluRay.x265.10bit.SDR.DTS-X.7.1-SWTYBLZ 60.61GB-3.png






开通VIP免费下载本站所有资源---点这里
新手必看:资源下载、资源播放、字幕使用、等常见问题---点这里
回复

使用道具 举报

发表于 5 天前 | 显示全部楼层
楼主发贴辛苦了,谢谢楼主分享!我觉得蓝光电影网是注册对了!
开通VIP免费下载本站所有资源---点这里
新手必看:资源下载、资源播放、字幕使用、等常见问题---点这里
回复 支持 反对

使用道具 举报

懒得打字嘛,点击右侧快捷回复 【右侧内容,后台自定义】
您需要登录后才可以回帖 登录 | 立即加入

本版积分规则

现在加入蓝光电影网,注册一个账号

QQ| 手机版|小黑屋| 蓝光电影网 |网站地图

Copyright © 2015-2019 Comsenz Inc.  Template by 蓝光电影网 All Rights Reserved.

Powered by 蓝光电影网 X3.4

特别声明:本站所有资源均由网上收集而来,版权归原影音公司所有,如果侵犯了你的权益,请通知我们,我们会及时删除侵权内容.

快速回复 返回顶部 返回列表