找回密码

蓝光电影网

查看: 44|回复: 0

[10bit.SDR] 破茧威龙 Lock.Up.1989.2160p.BluRay.x265.10bit.SDR.DTS-HD.MA.5.1-SWTYBLZ 45.14GB

[复制链接]

 成长值: 1345

发表于 6 天前 | 显示全部楼层 |阅读模式
破茧威龙 Lock.Up.1989.2160p.BluRay.x265.10bit.SDR.DTS-HD.MA.5.1-SWTYBLZ 45.14GB-1.png

译  名 破茧威龙 / Condena brutal / 黑狱灾星
片  名 Lock Up
年  代 1989
产  地 美国
类  别 动作 / 惊悚 / 犯罪
语  言 英语
上映日期 1989-08-04(美国)
IMDb评分  6.4/10 from 35447 users
IMDb链接  http://www.imdb.com/title/tt0097770
豆瓣评分 7.0/10 from 1142 users
豆瓣链接 https://movie.douban.com/subject/1299316/
片  长 109分钟
导  演 约翰·弗林 John Flynn
编  剧 Richard Smith / 杰布·斯图尔特 Jeb Stuart / 亨利·罗森鲍姆 Henry Rosenbaum
主  演 西尔维斯特·史泰龙 Sylvester Stallone
       唐纳德·萨瑟兰 Donald Sutherland
       约翰·阿莫斯 John Amos
       索尼·兰哈姆 Sonny Landham
       汤姆·塞兹摩尔 Tom Sizemore
       Frank McRae


标  签 史泰龙 | 动作 | 美国 | 监狱 | 犯罪 | 1989 | 美国电影 | 剧情

简  介  

  模范犯人弗兰克?莱昂尼(西尔维斯特?史泰龙 Sylvester Stallone 饰)的刑期还剩半年,他定期可以外出与女友见面,这个昔日的修车技师看中了一处仓库作为日后的修理部,平凡的生活在等待着他。然而某天他突然被转移到环境恶劣的盖特威监狱,全因五年前他为了见师父兼养父的最后一面,从监狱长庄古(唐纳德?萨瑟兰 Donald Sutherland 饰)的治下逃脱。弗兰克越狱成功成为英雄,而庄古却遭受处罚怀恨在心。现在,庄古将弗兰克重新掌握,寻机报仇。
  弗兰克遭到了庄古及手下的恶劣对待,但始终隐忍,并且渐渐在监狱中结交了几个朋友,包括始终想越狱的囚房万事通、瘦弱年轻的“杀手”和狱中修理厂的负责人,枯燥的生活有了好转,但是庄古始终默默注视着他,准备给他更大的痛苦……
  1. Video
  2. ID                                       : 1
  3. Format                                   : HEVC
  4. Format/Info                              : High Efficiency Video Coding
  5. Format profile                           : Main <a href="/cdn-cgi/l/email-protection" class="__cf_email__" data-cfemail="b48584f4f8819a85">[email protected]</a>@High
  6. Codec ID                                 : V_MPEGH/ISO/HEVC
  7. Duration                                 : 1 h 48 min
  8. Bit rate                                 : 54.4 Mb/s
  9. Width                                    : 3 840 pixels
  10. Height                                   : 2 076 pixels
  11. Display aspect ratio                     : 1.85:1
  12. Frame rate mode                          : Constant
  13. Frame rate                               : 24.000 FPS
  14. Color space                              : YUV
  15. Chroma subsampling                       : 4:2:0
  16. Bit depth                                : 10 bits
  17. Bits/(Pixel*Frame)                       : 0.285
  18. Stream size                              : 41.3 GiB (92%)
  19. Title                                    : Lock.Up.1989.2160p.BluRay.x265.10bit.SDR.DTS-HD.MA.5.1-SWTYBLZ
  20. Writing library                          : x265 3.0_RC0614145ecaf2:[Windows][GCC 8.2.1][64 bit] 10bit
  21. Encoding settings                        : cpuid=1111039 / frame-threads=16 / numa-pools=24,24,24,24 / wpp / no-pmode / no-pme / no-psnr / no-ssim / log-level=2 / input-csp=1 / input-res=3840x2076 / interlace=0 / total-frames=156504 / level-idc=51 / high-tier=1 / uhd-bd=0 / ref=3 / no-allow-non-conformance / repeat-headers / annexb / aud / hrd / info / hash=0 / no-temporal-layers / no-open-gop / min-keyint=1 / keyint=24 / gop-lookahead=0 / bframes=4 / b-adapt=2 / b-pyramid / bframe-bias=0 / rc-lookahead=25 / lookahead-slices=4 / scenecut=40 / radl=0 / no-splice / no-intra-refresh / ctu=64 / min-cu-size=8 / no-rect / no-amp / max-tu-size=32 / tu-inter-depth=1 / tu-intra-depth=1 / limit-tu=0 / rdoq-level=0 / dynamic-rd=0.00 / no-ssim-rd / signhide / no-tskip / nr-intra=0 / nr-inter=0 / no-constrained-intra / strong-intra-smoothing / max-merge=2 / limit-refs=3 / no-limit-modes / me=1 / subme=2 / merange=57 / temporal-mvp / weightp / no-weightb / no-analyze-src-pics / deblock=0:0 / no-sao / no-sao-non-deblock / rd=3 / no-early-skip / rskip / no-fast-intra / no-tskip-fast / no-cu-lossless / no-b-intra / no-splitrd-skip / rdpenalty=0 / psy-rd=2.00 / psy-rdoq=0.00 / no-rd-refine / no-lossless / cbqpoffs=0 / crqpoffs=0 / rc=crf / crf=22.0 / qcomp=0.60 / qpstep=4 / stats-write=0 / stats-read=0 / vbv-maxrate=160000 / vbv-bufsize=160000 / vbv-init=0.9 / crf-max=0.0 / crf-min=0.0 / ipratio=1.40 / pbratio=1.30 / aq-mode=1 / aq-strength=1.00 / cutree / zone-count=0 / no-strict-cbr / qg-size=32 / no-rc-grain / qpmax=69 / qpmin=0 / no-const-vbv / sar=1 / overscan=0 / videoformat=5 / range=0 / colorprim=2 / transfer=2 / colormatrix=2 / chromaloc=0 / display-window=0 / max-cll=0,0 / min-luma=0 / max-luma=1023 / log2-max-poc-lsb=8 / vui-timing-info / vui-hrd-info / slices=1 / opt-qp-pps / opt-ref-list-length-pps / no-multi-pass-opt-rps / scenecut-bias=0.05 / no-opt-cu-delta-qp / no-aq-motion / no-hdr / no-hdr-opt / no-dhdr10-opt / no-idr-recovery-sei / analysis-reuse-level=5 / scale-factor=0 / refine-intra=0 / refine-inter=0 / refine-mv=0 / refine-ctu-distortion=0 / no-limit-sao / ctu-info=0 / no-lowpass-dct / refine-analysis-type=0 / copy-pic=1 / max-ausize-factor=1.0 / no-dynamic-refine / no-single-sei / no-hevc-aq / qp-adaptation-range=1.00
  22. Default                                  : Yes
  23. Forced                                   : No

  24. Audio #1
  25. ID                                       : 2
  26. Format                                   : DTS XLL
  27. Format/Info                              : Digital Theater Systems
  28. Commercial name                          : DTS-HD Master Audio
  29. Codec ID                                 : A_DTS
  30. Duration                                 : 1 h 48 min
  31. Bit rate mode                            : Variable
  32. Bit rate                                 : 3 982 kb/s
  33. Channel(s)                               : 6 channels
  34. Channel layout                           : C L R Ls Rs LFE
  35. Sampling rate                            : 48.0 kHz
  36. Frame rate                               : 93.750 FPS (512 SPF)
  37. Bit depth                                : 24 bits
  38. Compression mode                         : Lossless
  39. Stream size                              : 3.02 GiB (7%)
  40. Title                                    : Lock.Up.1989.2160p.BluRay.x265.10bit.SDR.DTS-HD.MA.5.1-SWTYBLZ
  41. Language                                 : English
  42. Default                                  : Yes
  43. Forced                                   : No

  44. Audio #2
  45. ID                                       : 3
  46. Format                                   : AC-3
  47. Format/Info                              : Audio Coding 3
  48. Commercial name                          : Dolby Digital
  49. Codec ID                                 : A_AC3
  50. Duration                                 : 1 h 48 min
  51. Bit rate mode                            : Constant
  52. Bit rate                                 : 640 kb/s
  53. Channel(s)                               : 6 channels
  54. Channel layout                           : L R C LFE Ls Rs
  55. Sampling rate                            : 48.0 kHz
  56. Frame rate                               : 31.250 FPS (1536 SPF)
  57. Bit depth                                : 16 bits
  58. Compression mode                         : Lossy
  59. Stream size                              : 498 MiB (1%)
  60. Title                                    : Lock.Up.1989.2160p.BluRay.x265.10bit.SDR.DTS-HD.MA.5.1-SWTYBLZ
  61. Language                                 : English
  62. Service kind                             : Complete Main
  63. Default                                  : No
  64. Forced                                   : No

  65. Text #1
  66. ID                                       : 4
  67. Format                                   : UTF-8
  68. Codec ID                                 : S_TEXT/UTF8
  69. Codec ID/Info                            : UTF-8 Plain Text
  70. Duration                                 : 1 h 42 min
  71. Bit rate                                 : 41 b/s
  72. Count of elements                        : 1118
  73. Stream size                              : 31.0 KiB (0%)
  74. Title                                    : English-SRT
  75. Language                                 : English
  76. Default                                  : Yes
  77. Forced                                   : No

  78. Text #2
  79. ID                                       : 5
  80. Format                                   : PGS
  81. Muxing mode                              : zlib
  82. Codec ID                                 : S_HDMV/PGS
  83. Codec ID/Info                            : Picture based subtitle format used on BDs/HD-DVDs
  84. Duration                                 : 1 h 42 min
  85. Bit rate                                 : 22.2 kb/s
  86. Count of elements                        : 2254
  87. Stream size                              : 16.2 MiB (0%)
  88. Title                                    : English-PGS
  89. Language                                 : English
  90. Default                                  : No
  91. Forced                                   : No

  92. Text #3
  93. ID                                       : 6
  94. Format                                   : PGS
  95. Muxing mode                              : zlib
  96. Codec ID                                 : S_HDMV/PGS
  97. Codec ID/Info                            : Picture based subtitle format used on BDs/HD-DVDs
  98. Duration                                 : 1 h 46 min
  99. Bit rate                                 : 24.4 kb/s
  100. Count of elements                        : 2160
  101. Stream size                              : 18.6 MiB (0%)
  102. Title                                    : Spanish-PGS
  103. Language                                 : Spanish
  104. Default                                  : No
  105. Forced                                   : No

  106. Menu
  107. 00:00:00.000                             : en:Chapter 01
  108. 00:08:11.750                             : en:Chapter 02
  109. 00:18:44.500                             : en:Chapter 03
  110. 00:26:06.791                             : en:Chapter 04
  111. 00:32:52.791                             : en:Chapter 05
  112. 00:40:58.291                             : en:Chapter 06
  113. 00:54:47.791                             : en:Chapter 07
  114. 01:06:00.791                             : en:Chapter 08
  115. 01:15:18.958                             : en:Chapter 09
  116. 01:23:07.708                             : en:Chapter 10
  117. 01:36:07.708                             : en:Chapter 11
  118. 01:44:56.916                             : en:Chapter 12
复制代码

破茧威龙 Lock.Up.1989.2160p.BluRay.x265.10bit.SDR.DTS-HD.MA.5.1-SWTYBLZ 45.14GB-2.png 破茧威龙 Lock.Up.1989.2160p.BluRay.x265.10bit.SDR.DTS-HD.MA.5.1-SWTYBLZ 45.14GB-3.png 破茧威龙 Lock.Up.1989.2160p.BluRay.x265.10bit.SDR.DTS-HD.MA.5.1-SWTYBLZ 45.14GB-4.png 破茧威龙 Lock.Up.1989.2160p.BluRay.x265.10bit.SDR.DTS-HD.MA.5.1-SWTYBLZ 45.14GB-5.png 破茧威龙 Lock.Up.1989.2160p.BluRay.x265.10bit.SDR.DTS-HD.MA.5.1-SWTYBLZ 45.14GB-6.png 破茧威龙 Lock.Up.1989.2160p.BluRay.x265.10bit.SDR.DTS-HD.MA.5.1-SWTYBLZ 45.14GB-7.png 破茧威龙 Lock.Up.1989.2160p.BluRay.x265.10bit.SDR.DTS-HD.MA.5.1-SWTYBLZ 45.14GB-8.png






开通VIP免费下载本站所有资源---点这里
新手必看:资源下载、资源播放、字幕使用、等常见问题---点这里
回复

使用道具 举报

懒得打字嘛,点击右侧快捷回复 【右侧内容,后台自定义】
您需要登录后才可以回帖 登录 | 立即加入

本版积分规则

现在加入蓝光电影网,注册一个账号

QQ| 手机版|小黑屋| 蓝光电影网 |网站地图

Copyright © 2015-2019 Comsenz Inc.  Template by 蓝光电影网 All Rights Reserved.

Powered by 蓝光电影网 X3.4

特别声明:本站所有资源均由网上收集而来,版权归原影音公司所有,如果侵犯了你的权益,请通知我们,我们会及时删除侵权内容.

快速回复 返回顶部 返回列表