找回密码

蓝光电影网

查看: 80|回复: 1

[REMUX.HEVC] 赛车总动员2/3D反斗车王2 Cars.2.2011.2160p.BluRay.REMUX.HEVC.TrueHD.7.1.Atmos-FGT 40.26GB

[复制链接]

 成长值: 1345

发表于 6 天前 | 显示全部楼层 |阅读模式
赛车总动员2/3D反斗车王2 Cars.2.2011.2160p.BluRay.REMUX.HEVC.TrueHD.7.1.Atmos-FGT 40.26GB-1.png

译  名 赛车总动员2 / 3D反斗车王2(港) / Cars2:世界大赛(台) / 小汽车的故事2 / 汽车总动员2 / 飞车正传2
片  名 Cars 2
年  代 2011
产  地 美国
类  别 喜剧 / 动画 / 冒险
语  言 英语 / 日语 / 意大利语 / 法语
上映日期 2011-06-24(美国) / 2011-08-24(中国大陆)
IMDb评分  6.2/10 from 142508 users
IMDb链接  http://www.imdb.com/title/tt1216475
豆瓣评分 7.6/10 from 64760 users
豆瓣链接 https://movie.douban.com/subject/3036478/
片  长 106分钟
导  演 约翰·拉塞特 John Lasseter / 布拉德·刘易斯 Brad Lewis
编  剧 约翰·拉塞特 John Lasseter / 布拉德·刘易斯 Brad Lewis / 丹·福格尔曼 Dan Fogelman / 本·奎因 Ben Queen
主  演 欧文·威尔逊 Owen Wilson
       王牌接线员拉里 Larry The Cable Guy
       迈克尔·凯恩 Michael Caine
       艾米莉·莫迪默 Emily Mortimer
       艾迪·伊扎德 Eddie Izzard
       约翰·特托罗 John Turturro
       布伦特·马斯伯格 Brent Musburger
       乔·曼特纳 Joe Mantegna
       托马斯·克莱舒曼 Thomas Kretschmann
       彼得·雅各布森 Peter Jacobson
       邦尼·亨特 Bonnie Hunt
       达雷尔·沃尔特里普 Darrell Waltrip
       弗兰科·尼罗 Franco Nero
       大卫·赫伯斯 David Hobbs
       托尼·夏尔赫布 Tony Shalhoub
       杰夫·格尔林 Jeff Garlin
       詹森·艾萨克 Jason Isaacs
       布鲁斯·坎贝尔  Bruce Campbell
       詹妮弗·路易斯 Jenifer Lewis
       斯坦利·汤森德 Stanley Townsend
       维利贝·托皮奇 Velibor Topic
       锡格·汉森 Sig Hansen
       盖多·克隆尼 Guido Quaroni
       瓦妮莎·雷德格瑞夫 Vanessa Redgrave
       布拉德·刘易斯 Brad Lewis
       切奇·马林 Cheech Marin
       保罗·杜利 Paul Dooley
       伊迪·迈克莱尔 Edie McClurg
       理查德·坎德 Richard Kind
       凯瑟琳·海蒙德 Katherine Helmond
       迈克尔·沃利斯 Michael Wallis


标  签 动画 | 美国 | 皮克斯 | 喜剧 | 2011 | 迪斯尼 | 3D | 冒险

简  介  

  开发出新能源的迈尔斯伯爵召开世界杯赛车大奖赛,各路好手纷纷云集,独独缺了活塞杯霸主闪电麦昆(黄磊 配音)。原来他刚好回到温泉镇,与好哥们板牙(范伟 配音)、女友莎莉享受快乐的假期。由于意大利方程式赛车法拉斯·高的挑衅,当然也有吃醋的原因,麦昆最终同意参加世界杯,并带着板 牙等好友一同周游世界。在日本站比赛的前一天,板牙偶然结识了英国特工迈克飞弹和霍莉(姚晨 配音),他们正在追查一支犯罪团伙的新动向。板牙阴差阳错被霍莉当作美国来的接头特工,由此卷入了麻烦之中。在次日的比赛中,麦昆与法拉斯·高竞争激烈,与此同时不断有选手意外爆缸,板牙则撞见迈克和神秘组织火并的场面。
  因这一连串意外,麦昆和板牙的友情受到动摇,而这一切的幕后老板也渐渐露出真实面目……

获奖情况  

  第69届金球奖(2012)
  电影类 最佳动画长片(提名)

  第39届动画安妮奖(2012)
  最佳动画长片(提名)
  最佳剪辑(提名) Stephen Schaffer
  最佳分镜(提名)
  最佳艺术指导(提名) 哈雷·杰斯普
  最佳角色设计(提名) Jay Shuster
  最佳动画效果(提名) Eric Froemling / Jon Reisch
  1. Video
  2. ID                                       : 1
  3. Format                                   : HEVC
  4. Format/Info                              : High Efficiency Video Coding
  5. Format profile                           : Main <a href="/cdn-cgi/l/email-protection" class="__cf_email__" data-cfemail="b58485f5f9809b84">[email protected]</a>@High
  6. HDR format                               : SMPTE ST 2086, HDR10 compatible
  7. Codec ID                                 : V_MPEGH/ISO/HEVC
  8. Duration                                 : 1 h 46 min
  9. Bit rate                                 : 41.9 Mb/s
  10. Width                                    : 3 840 pixels
  11. Height                                   : 2 160 pixels
  12. Display aspect ratio                     : 16:9
  13. Frame rate mode                          : Constant
  14. Frame rate                               : 23.976 (24000/1001) FPS
  15. Color space                              : YUV
  16. Chroma subsampling                       : 4:2:0 (Type 2)
  17. Bit depth                                : 10 bits
  18. Bits/(Pixel*Frame)                       : 0.211
  19. Stream size                              : 31.1 GiB (77%)
  20. Title                                    : Cars.2.2011.2160p.BluRay.REMUX.HEVC.TrueHD.7.1.Atmos-FGT
  21. Writing library                          : ATEME Titan File 3.9.0 (4.9.0.0)        
  22. Language                                 : English
  23. Default                                  : No
  24. Forced                                   : No
  25. Color range                              : Limited
  26. Color primaries                          : BT.2020
  27. Transfer characteristics                 : PQ
  28. Matrix coefficients                      : BT.2020 non-constant
  29. Mastering display color primaries        : Display P3
  30. Mastering display luminance              : min: 0.0000 cd/m2, max: 1000 cd/m2

  31. Audio #1
  32. ID                                       : 2
  33. Format                                   : MLP FBA 16-ch
  34. Format/Info                              : Meridian Lossless Packing FBA with 16-channel presentation
  35. Commercial name                          : Dolby TrueHD with Dolby Atmos
  36. Codec ID                                 : A_TRUEHD
  37. Duration                                 : 1 h 46 min
  38. Bit rate mode                            : Variable
  39. Bit rate                                 : 7 474 kb/s
  40. Maximum bit rate                         : 6 894 kb/s
  41. Channel(s)                               : 8 channels
  42. Channel layout                           : L R C LFE Ls Rs Lb Rb
  43. Sampling rate                            : 48.0 kHz
  44. Frame rate                               : 1 200.000 FPS (40 SPF)
  45. Compression mode                         : Lossless
  46. Stream size                              : 5.55 GiB (14%)
  47. Title                                    : Cars.2.2011.2160p.BluRay.REMUX.HEVC.TrueHD.7.1.Atmos-FGT
  48. Language                                 : English
  49. Default                                  : Yes
  50. Forced                                   : No
  51. Number of dynamic objects                : 13
  52. Bed channel count                        : 1 channel
  53. Bed channel configuration                : LFE

  54. Audio #2
  55. ID                                       : 3
  56. Format                                   : AC-3
  57. Format/Info                              : Audio Coding 3
  58. Commercial name                          : Dolby Digital
  59. Codec ID                                 : A_AC3
  60. Duration                                 : 1 h 46 min
  61. Bit rate mode                            : Constant
  62. Bit rate                                 : 640 kb/s
  63. Channel(s)                               : 6 channels
  64. Channel layout                           : L R C LFE Ls Rs
  65. Sampling rate                            : 48.0 kHz
  66. Frame rate                               : 31.250 FPS (1536 SPF)
  67. Bit depth                                : 16 bits
  68. Compression mode                         : Lossy
  69. Stream size                              : 486 MiB (1%)
  70. Title                                    : Cars.2.2011.2160p.BluRay.REMUX.HEVC.TrueHD.7.1.Atmos-FGT
  71. Language                                 : English
  72. Service kind                             : Complete Main
  73. Default                                  : No
  74. Forced                                   : No

  75. Audio #3
  76. ID                                       : 4
  77. Format                                   : E-AC-3
  78. Format/Info                              : Enhanced AC-3
  79. Commercial name                          : Dolby Digital Plus
  80. Format profile                           : Blu-ray Disc
  81. Codec ID                                 : A_EAC3
  82. Duration                                 : 1 h 46 min
  83. Bit rate mode                            : Constant
  84. Bit rate                                 : 896 kb/s
  85. Channel(s)                               : 8 channels
  86. Channel layout                           : L R C LFE Ls Rs Lb Rb
  87. Sampling rate                            : 48.0 kHz
  88. Frame rate                               : 31.250 FPS (1536 SPF)
  89. Compression mode                         : Lossy
  90. Stream size                              : 681 MiB (2%)
  91. Title                                    : Cars.2.2011.2160p.BluRay.REMUX.HEVC.TrueHD.7.1.Atmos-FGT
  92. Language                                 : English
  93. Service kind                             : Complete Main
  94. Default                                  : No
  95. Forced                                   : No

  96. Audio #4
  97. ID                                       : 5
  98. Format                                   : AC-3
  99. Format/Info                              : Audio Coding 3
  100. Commercial name                          : Dolby Digital
  101. Codec ID                                 : A_AC3
  102. Duration                                 : 1 h 46 min
  103. Bit rate mode                            : Constant
  104. Bit rate                                 : 512 kb/s
  105. Channel(s)                               : 6 channels
  106. Channel layout                           : L R C LFE Ls Rs
  107. Sampling rate                            : 48.0 kHz
  108. Frame rate                               : 31.250 FPS (1536 SPF)
  109. Bit depth                                : 16 bits
  110. Compression mode                         : Lossy
  111. Stream size                              : 389 MiB (1%)
  112. Title                                    : Cars.2.2011.2160p.BluRay.REMUX.HEVC.TrueHD.7.1.Atmos-FGT
  113. Language                                 : English
  114. Service kind                             : Complete Main
  115. Default                                  : No
  116. Forced                                   : No

  117. Audio #5
  118. ID                                       : 6
  119. Format                                   : AC-3
  120. Format/Info                              : Audio Coding 3
  121. Commercial name                          : Dolby Digital
  122. Codec ID                                 : A_AC3
  123. Duration                                 : 1 h 46 min
  124. Bit rate mode                            : Constant
  125. Bit rate                                 : 640 kb/s
  126. Channel(s)                               : 6 channels
  127. Channel layout                           : L R C LFE Ls Rs
  128. Sampling rate                            : 48.0 kHz
  129. Frame rate                               : 31.250 FPS (1536 SPF)
  130. Bit depth                                : 16 bits
  131. Compression mode                         : Lossy
  132. Stream size                              : 486 MiB (1%)
  133. Title                                    : Cars.2.2011.2160p.BluRay.REMUX.HEVC.TrueHD.7.1.Atmos-FGT
  134. Language                                 : English
  135. Service kind                             : Complete Main
  136. Default                                  : No
  137. Forced                                   : No

  138. Audio #6
  139. ID                                       : 7
  140. Format                                   : AC-3
  141. Format/Info                              : Audio Coding 3
  142. Commercial name                          : Dolby Digital
  143. Codec ID                                 : A_AC3
  144. Duration                                 : 1 h 46 min
  145. Bit rate mode                            : Constant
  146. Bit rate                                 : 320 kb/s
  147. Channel(s)                               : 2 channels
  148. Channel layout                           : L R
  149. Sampling rate                            : 48.0 kHz
  150. Frame rate                               : 31.250 FPS (1536 SPF)
  151. Bit depth                                : 16 bits
  152. Compression mode                         : Lossy
  153. Stream size                              : 243 MiB (1%)
  154. Title                                    : Cars.2.2011.2160p.BluRay.REMUX.HEVC.TrueHD.7.1.Atmos-FGT
  155. Language                                 : English
  156. Service kind                             : Complete Main
  157. Default                                  : No
  158. Forced                                   : No

  159. Audio #7
  160. ID                                       : 8
  161. Format                                   : AC-3
  162. Format/Info                              : Audio Coding 3
  163. Commercial name                          : Dolby Digital
  164. Codec ID                                 : A_AC3
  165. Duration                                 : 1 h 46 min
  166. Bit rate mode                            : Constant
  167. Bit rate                                 : 320 kb/s
  168. Channel(s)                               : 2 channels
  169. Channel layout                           : L R
  170. Sampling rate                            : 48.0 kHz
  171. Frame rate                               : 31.250 FPS (1536 SPF)
  172. Bit depth                                : 16 bits
  173. Compression mode                         : Lossy
  174. Stream size                              : 243 MiB (1%)
  175. Title                                    : Cars.2.2011.2160p.BluRay.REMUX.HEVC.TrueHD.7.1.Atmos-FGT
  176. Language                                 : English
  177. Service kind                             : Complete Main
  178. Default                                  : No
  179. Forced                                   : No

  180. Audio #8
  181. ID                                       : 9
  182. Format                                   : E-AC-3
  183. Format/Info                              : Enhanced AC-3
  184. Commercial name                          : Dolby Digital Plus
  185. Format profile                           : Blu-ray Disc
  186. Codec ID                                 : A_EAC3
  187. Duration                                 : 1 h 46 min
  188. Bit rate mode                            : Constant
  189. Bit rate                                 : 896 kb/s
  190. Channel(s)                               : 8 channels
  191. Channel layout                           : L R C LFE Ls Rs Lb Rb
  192. Sampling rate                            : 48.0 kHz
  193. Frame rate                               : 31.250 FPS (1536 SPF)
  194. Compression mode                         : Lossy
  195. Stream size                              : 681 MiB (2%)
  196. Title                                    : Cars.2.2011.2160p.BluRay.REMUX.HEVC.TrueHD.7.1.Atmos-FGT
  197. Language                                 : Spanish
  198. Service kind                             : Complete Main
  199. Default                                  : No
  200. Forced                                   : No

  201. Audio #9
  202. ID                                       : 10
  203. Format                                   : AC-3
  204. Format/Info                              : Audio Coding 3
  205. Commercial name                          : Dolby Digital
  206. Codec ID                                 : A_AC3
  207. Duration                                 : 1 h 46 min
  208. Bit rate mode                            : Constant
  209. Bit rate                                 : 512 kb/s
  210. Channel(s)                               : 6 channels
  211. Channel layout                           : L R C LFE Ls Rs
  212. Sampling rate                            : 48.0 kHz
  213. Frame rate                               : 31.250 FPS (1536 SPF)
  214. Bit depth                                : 16 bits
  215. Compression mode                         : Lossy
  216. Stream size                              : 389 MiB (1%)
  217. Title                                    : Cars.2.2011.2160p.BluRay.REMUX.HEVC.TrueHD.7.1.Atmos-FGT
  218. Language                                 : Spanish
  219. Service kind                             : Complete Main
  220. Default                                  : No
  221. Forced                                   : No

  222. Text #1
  223. ID                                       : 11
  224. Format                                   : UTF-8
  225. Codec ID                                 : S_TEXT/UTF8
  226. Codec ID/Info                            : UTF-8 Plain Text
  227. Duration                                 : 1 h 37 min
  228. Bit rate                                 : 83 b/s
  229. Count of elements                        : 1536
  230. Stream size                              : 59.7 KiB (0%)
  231. Title                                    : English-SRT
  232. Language                                 : English
  233. Default                                  : Yes
  234. Forced                                   : No

  235. Text #2
  236. ID                                       : 12
  237. Format                                   : PGS
  238. Muxing mode                              : zlib
  239. Codec ID                                 : S_HDMV/PGS
  240. Codec ID/Info                            : Picture based subtitle format used on BDs/HD-DVDs
  241. Duration                                 : 1 h 37 min
  242. Bit rate                                 : 61.9 kb/s
  243. Count of elements                        : 3333
  244. Stream size                              : 43.1 MiB (0%)
  245. Title                                    : English-PGS
  246. Language                                 : English
  247. Default                                  : No
  248. Forced                                   : No

  249. Text #3
  250. ID                                       : 13
  251. Format                                   : PGS
  252. Muxing mode                              : zlib
  253. Codec ID                                 : S_HDMV/PGS
  254. Codec ID/Info                            : Picture based subtitle format used on BDs/HD-DVDs
  255. Duration                                 : 1 h 37 min
  256. Bit rate                                 : 50.8 kb/s
  257. Count of elements                        : 2884
  258. Stream size                              : 35.4 MiB (0%)
  259. Title                                    : Spanish-PGS
  260. Language                                 : Spanish
  261. Default                                  : No
  262. Forced                                   : No

  263. Menu
  264. 00:00:00.000                             : en:Chapter 01
  265. 00:01:30.006                             : en:Chapter 02
  266. 00:04:48.329                             : en:Chapter 03
  267. 00:07:44.464                             : en:Chapter 04
  268. 00:12:08.519                             : en:Chapter 05
  269. 00:17:49.777                             : en:Chapter 06
  270. 00:20:02.159                             : en:Chapter 07
  271. 00:22:52.329                             : en:Chapter 08
  272. 00:26:35.343                             : en:Chapter 09
  273. 00:30:30.995                             : en:Chapter 10
  274. 00:32:42.794                             : en:Chapter 11
  275. 00:34:14.343                             : en:Chapter 12
  276. 00:37:16.400                             : en:Chapter 13
  277. 00:40:44.859                             : en:Chapter 14
  278. 00:42:53.988                             : en:Chapter 15
  279. 00:46:19.401                             : en:Chapter 16
  280. 00:46:58.732                             : en:Chapter 17
  281. 00:49:49.361                             : en:Chapter 18
  282. 00:53:57.234                             : en:Chapter 19
  283. 00:54:58.086                             : en:Chapter 20
  284. 00:57:37.036                             : en:Chapter 21
  285. 00:59:28.565                             : en:Chapter 22
  286. 01:02:17.608                             : en:Chapter 23
  287. 01:05:57.036                             : en:Chapter 24
  288. 01:12:32.598                             : en:Chapter 25
  289. 01:14:06.733                             : en:Chapter 26
  290. 01:15:25.020                             : en:Chapter 27
  291. 01:21:13.618                             : en:Chapter 28
  292. 01:23:23.081                             : en:Chapter 29
  293. 01:29:07.759                             : en:Chapter 30
  294. 01:31:48.961                             : en:Chapter 31
  295. 01:32:42.056                             : en:Chapter 32
  296. 01:38:19.393                             : en:Chapter 33
复制代码

赛车总动员2/3D反斗车王2 Cars.2.2011.2160p.BluRay.REMUX.HEVC.TrueHD.7.1.Atmos-FGT 40.26GB-2.png 赛车总动员2/3D反斗车王2 Cars.2.2011.2160p.BluRay.REMUX.HEVC.TrueHD.7.1.Atmos-FGT 40.26GB-3.png 赛车总动员2/3D反斗车王2 Cars.2.2011.2160p.BluRay.REMUX.HEVC.TrueHD.7.1.Atmos-FGT 40.26GB-4.png






开通VIP免费下载本站所有资源---点这里
新手必看:资源下载、资源播放、字幕使用、等常见问题---点这里
回复

使用道具 举报

发表于 5 天前 | 显示全部楼层
楼主太厉害了!楼主,电影应该很好看我觉得蓝光电影网真是个好地方!
开通VIP免费下载本站所有资源---点这里
新手必看:资源下载、资源播放、字幕使用、等常见问题---点这里
回复 支持 反对

使用道具 举报

懒得打字嘛,点击右侧快捷回复 【右侧内容,后台自定义】
您需要登录后才可以回帖 登录 | 立即加入

本版积分规则

现在加入蓝光电影网,注册一个账号

QQ| 手机版|小黑屋| 蓝光电影网 |网站地图

Copyright © 2015-2019 Comsenz Inc.  Template by 蓝光电影网 All Rights Reserved.

Powered by 蓝光电影网 X3.4

特别声明:本站所有资源均由网上收集而来,版权归原影音公司所有,如果侵犯了你的权益,请通知我们,我们会及时删除侵权内容.

快速回复 返回顶部 返回列表