找回密码

蓝光电影网

查看: 64|回复: 6

[剧情] 回来吧非洲 Come.Back.Africa.1959.1080p.BluRay.x264-SADPANDA 8.06GB

[复制链接]

 成长值: 1420

发表于 2019-9-10 13:49:30 | 显示全部楼层 |阅读模式
回来吧非洲 Come.Back.Africa.1959.1080p.BluRay.x264-SADPANDA 8.06GB-1.png

译  名 回来吧,非洲
片  名 Come Back, Africa
年  代 1959
产  地 美国
类  别 剧情
语  言 英语 / Afrikaans
上映日期 1960-04-04
IMDb评分  7.1/10 from 276 users
IMDb链接  http://www.imdb.com/title/tt0049087
豆瓣评分 0/10 from 0 users
豆瓣链接 https://movie.douban.com/subject/1302143/
片  长 95 分钟
导  演 Lionel Rogosin
编  剧 Bloke Modisane / Lewis Nkosi / Lionel Rogosin
主  演 Zacharia Mgabi
       Vinah Bendile
       Miriam Makeba
       Lewis Nkosi
       Bloke Modisane


标  签 独立电影 | 南非 | 美国电影 | 美国 | 莱昂内尔·罗戈辛 | Lionel_Rogosin | LionelRogosin | 1960s

简  介  

  故事讲一个南非北部乡村的男人,到约翰内斯堡城里谋生的故事;那时的南非,种族隔离政策;是的黑人在城里工作,只能白天进城,晚上出城;而城里的工作需要有工作签证许可,白人与黑人地位的不同,生活的境遇也是天上地下;男人工作换了又换,却还在去另一个城市还是回乡中徘徊;男人的女人来了,男人的压力也大了;女人积极面对生来的处境,想要外出工作补贴家用和为孩子上学存钱;男人面对城市生活带来的改变以及家中女人谋求独立的要求;城市的繁华与游离的失业,传统的习俗和男人的家庭地位,在变革中的社会里,家庭面临的危机如平静水面下的暗涌。
  1. Video
  2. ID                                       : 1
  3. Format                                   : AVC
  4. Format/Info                              : Advanced Video Codec
  5. Format profile                           : <a href="/cdn-cgi/l/email-protection" class="__cf_email__" data-cfemail="c68eafa1ae868af2e8f7">High@L4.1</a>
  6. Format settings, CABAC                   : Yes
  7. Format settings, ReFrames                : 5 frames
  8. Codec ID                                 : V_MPEG4/ISO/AVC
  9. Duration                                 : 1h 25mn
  10. Bit rate                                 : 13.0 Mbps
  11. Width                                    : 1 440 pixels
  12. Height                                   : 1 080 pixels
  13. Display aspect ratio                     : 4:3
  14. Frame rate mode                          : Constant
  15. Frame rate                               : 24.000 fps
  16. Color space                              : YUV
  17. Chroma subsampling                       : 4:2:0
  18. Bit depth                                : 8 bits
  19. Scan type                                : Progressive
  20. Bits/(Pixel*Frame)                       : 0.349
  21. Stream size                              : 7.80 GiB (98%)
  22. Writing library                          : x264 core 152 r2851 ba24899
  23. Encoding settings                        : cabac=1 / ref=5 / deblock=1:-3:-3 / analyse=0x3:0x113 / me=umh / subme=8 / psy=1 / psy_rd=1.00:0.25 / mixed_ref=1 / me_range=24 / chroma_me=1 / trellis=1 / 8x8dct=1 / cqm=0 / deadzone=21,11 / fast_pskip=1 / chroma_qp_offset=-4 / threads=30 / lookahead_threads=5 / sliced_threads=0 / nr=0 / decimate=1 / interlaced=0 / bluray_compat=0 / constrained_intra=0 / bframes=3 / b_pyramid=2 / b_adapt=1 / b_bias=0 / direct=3 / weightb=1 / open_gop=0 / weightp=2 / keyint=240 / keyint_min=24 / scenecut=40 / intra_refresh=0 / rc_lookahead=50 / rc=2pass / mbtree=1 / bitrate=13008 / ratetol=1.0 / qcomp=0.60 / qpmin=0 / qpmax=69 / qpstep=4 / cplxblur=20.0 / qblur=0.5 / ip_ratio=1.40 / aq=1:0.75
  24. Default                                  : Yes
  25. Forced                                   : No

  26. Audio
  27. ID                                       : 2
  28. Format                                   : FLAC
  29. Format/Info                              : Free Lossless Audio Codec
  30. Codec ID                                 : A_FLAC
  31. Duration                                 : 1h 25mn
  32. Bit rate mode                            : Variable
  33. Bit rate                                 : 238 Kbps
  34. Channel(s)                               : 2 channels
  35. Channel positions                        : Front: L R
  36. Sampling rate                            : 48.0 KHz
  37. Frame rate                               : 11.719 fps (4096 spf)
  38. Bit depth                                : 16 bits
  39. Stream size                              : 146 MiB (2%)
  40. Writing library                          : libFLAC 1.2.1 (UTC 2007-09-17)
  41. Language                                 : English
  42. Default                                  : Yes
  43. Forced                                   : No

  44. Text
  45. ID                                       : 3
  46. Format                                   : UTF-8
  47. Codec ID                                 : S_TEXT/UTF8
  48. Codec ID/Info                            : UTF-8 Plain Text
  49. Duration                                 : 1h 15mn
  50. Bit rate                                 : 7 bps
  51. Count of elements                        : 155
  52. Stream size                              : 4.36 KiB (0%)
  53. Title                                    : Forced
  54. Language                                 : English
  55. Default                                  : Yes
  56. Forced                                   : No

  57. Menu
  58. 00:00:00.000                             : en:00:00:00.000
  59. 00:06:31.583                             : en:00:06:31.583
  60. 00:12:00.250                             : en:00:12:00.250
  61. 00:20:18.583                             : en:00:20:18.583
  62. 00:28:12.625                             : en:00:28:12.625
  63. 00:35:20.708                             : en:00:35:20.708
  64. 00:43:17.583                             : en:00:43:17.583
  65. 00:49:50.750                             : en:00:49:50.750
  66. 00:55:40.583                             : en:00:55:40.583
  67. 00:57:58.667                             : en:00:57:58.667
  68. 01:11:19.458                             : en:01:11:19.458
  69. 01:17:30.917                             : en:01:17:30.917
复制代码

回来吧非洲 Come.Back.Africa.1959.1080p.BluRay.x264-SADPANDA 8.06GB-2.png






开通VIP免费下载本站所有资源---点这里
新手必看:资源下载常见问题---点这里
回复

使用道具 举报

发表于 2019-9-10 20:38:01 | 显示全部楼层
好老的片子了,收藏,感谢分享!
开通VIP免费下载本站所有资源---点这里
新手必看:资源下载常见问题---点这里
回复 支持 反对

使用道具 举报

发表于 2019-9-10 20:38:20 | 显示全部楼层
楼主发贴辛苦了,谢谢楼主分享!我觉得蓝光电影网是注册对了!
开通VIP免费下载本站所有资源---点这里
新手必看:资源下载常见问题---点这里
回复 支持 反对

使用道具 举报

发表于 2019-9-10 21:33:33 | 显示全部楼层
谢谢楼主 多谢了
开通VIP免费下载本站所有资源---点这里
新手必看:资源下载常见问题---点这里
回复 支持 反对

使用道具 举报

发表于 2019-9-11 08:35:02 | 显示全部楼层
楼主发贴辛苦了,谢谢楼主分享!我觉得蓝光电影网是注册对了!
开通VIP免费下载本站所有资源---点这里
新手必看:资源下载常见问题---点这里
回复 支持 反对

使用道具 举报

发表于 2019-9-11 10:23:15 | 显示全部楼层
6666666666666666666
开通VIP免费下载本站所有资源---点这里
新手必看:资源下载常见问题---点这里
回复 支持 反对

使用道具 举报

发表于 2019-9-11 23:43:22 | 显示全部楼层
希望可以下载了
开通VIP免费下载本站所有资源---点这里
新手必看:资源下载常见问题---点这里
回复 支持 反对

使用道具 举报

懒得打字嘛,点击右侧快捷回复 【右侧内容,后台自定义】
您需要登录后才可以回帖 登录 | 立即加入

本版积分规则

现在加入蓝光电影网,注册一个账号

QQ| 手机版|小黑屋| 蓝光电影网 |网站地图

Copyright © 2015-2019 Comsenz Inc.  Template by 蓝光电影网 All Rights Reserved.

Powered by 蓝光电影网 X3.4

特别声明:本站所有资源均由网上收集而来,版权归原影音公司所有,如果侵犯了你的权益,请通知我们,我们会及时删除侵权内容.

快速回复 返回顶部 返回列表