找回密码

蓝光电影网

查看: 99|回复: 2

[纪录] 未知世界的秘密 Mysteries.of.the.Unseen.World.2013.RERIP.1080p.BluRay.x264-SADPANDA 3.27GB

[复制链接]

 成长值: 1420

发表于 2019-9-10 13:48:55 | 显示全部楼层 |阅读模式
未知世界的秘密 Mysteries.of.the.Unseen.World.2013.RERIP.1080p.BluRay.x264-SADPANDA 3.27GB-1.png

译  名 未知世界的秘密
片  名 Mysteries of the Unseen World
年  代 2013
产  地 美国
类  别 纪录片 / 短片
语  言 英语
上映日期 2013-11-01(美国) / 2016-04-11(瑞典)
IMDb评分  7.6/10 from 694 users
IMDb链接  http://www.imdb.com/title/tt2896898
豆瓣评分 9.2/10 from 163 users
豆瓣链接 https://movie.douban.com/subject/25772512/
片  长 39分钟
导  演 Louis Schwartzberg
编  剧 Mose Richards
主  演 Andrew Bankston
       Payton Bourgeois
       Elizabeth Donner
       Shelby Farrell
       Jaqueline Fleming
       Ernie Hucke
       Melo Matus
       Johnathan McRae
       Jesse Moore
       Yosef Ratleff
       Daniel Saah
       Lisa Mackel Smith
       Kaysia Monique Stove
       Mason Vial
       福里斯特·惠特克 Forest Whitaker


标  签 纪录片 | 美国 | 自然 | 短片 | 2013 | Documentary | 科普 | IMAX

简  介  

  MYSTERIES OF THE UNSEEN WORLD transports audiences to places on this planet that they have never been before, to see things that are beyond their normal vision, yet literally right in front of their eyes. Mysteries of the Unseen World reveals phenomena that can't be seen with the naked eye, taking audiences into earthly worlds secreted away in different dimensions of time and scale. Viewers experience events that unfold too slowly for human perception; They "see" the beauty, drama, and even humor of phenomena of that occur in the flash of a microsecond; They enter the microscopic world that was once reserved only for scientists, but that Mysteries of the Unseen World makes accessible to the rest of us; They begin to understand that what we actually see is only a fraction of what there is TO see on this Earth. High-speed and time-lapse photography, electron microscopy, and nanotechnology are just a few of the advancements in science that now allow us to see a whole new universe of things, events, creatures, and processes we never even knew existed and now give us new "super powers" to see beyond what is in front of us. Visually stunning and rooted in cutting-edge research, Mysteries of the Unseen World will leave audiences in complete thrall as they begin to understand the enormity of the world they can't see, a world that exists in the air they breathe, on their own bodies, and in all of the events that occur around them minute-by-minute, and nanosecond-by-nanosecond. And with this understanding comes a new appreciation of the wonder and possibilities of science.
  1. Video
  2. ID                                       : 1
  3. Format                                   : AVC
  4. Format/Info                              : Advanced Video Codec
  5. Format profile                           : <a href="/cdn-cgi/l/email-protection" class="__cf_email__" data-cfemail="2d65444a456d6119031c">High@L4.1</a>
  6. Format settings, CABAC                   : Yes
  7. Format settings, ReFrames                : 4 frames
  8. Codec ID                                 : V_MPEG4/ISO/AVC
  9. Duration                                 : 39mn 7s
  10. Bit rate                                 : 10.5 Mbps
  11. Width                                    : 1 920 pixels
  12. Height                                   : 1 080 pixels
  13. Display aspect ratio                     : 16:9
  14. Frame rate mode                          : Constant
  15. Frame rate                               : 23.976 fps
  16. Color space                              : YUV
  17. Chroma subsampling                       : 4:2:0
  18. Bit depth                                : 8 bits
  19. Scan type                                : Progressive
  20. Bits/(Pixel*Frame)                       : 0.211
  21. Stream size                              : 2.79 GiB (85%)
  22. Writing library                          : x264 core 146 r2538 121396c
  23. Encoding settings                        : cabac=1 / ref=4 / deblock=1:0:0 / analyse=0x3:0x133 / me=umh / subme=8 / psy=1 / psy_rd=1.00:0.00 / mixed_ref=1 / me_range=16 / chroma_me=1 / trellis=1 / 8x8dct=1 / cqm=0 / deadzone=21,11 / fast_pskip=0 / chroma_qp_offset=-2 / threads=12 / lookahead_threads=2 / sliced_threads=0 / nr=0 / decimate=1 / interlaced=0 / bluray_compat=0 / constrained_intra=0 / bframes=3 / b_pyramid=2 / b_adapt=1 / b_bias=0 / direct=1 / weightb=1 / open_gop=0 / weightp=2 / keyint=250 / keyint_min=23 / scenecut=40 / intra_refresh=0 / rc_lookahead=40 / rc=2pass / mbtree=1 / bitrate=10481 / ratetol=1.0 / qcomp=0.60 / qpmin=0 / qpmax=69 / qpstep=4 / cplxblur=20.0 / qblur=0.5 / ip_ratio=1.40 / aq=1:1.00
  24. Language                                 : English
  25. Default                                  : Yes
  26. Forced                                   : No
  27. DURATION                                 : 00:39:07.304000000
  28. NUMBER_OF_FRAMES                         : 56279
  29. NUMBER_OF_BYTES                          : 3069677274
  30. _STATISTICS_WRITING_APP                  : mkvmerge v7.8.0 (\'River Man\') 64bit built on Mar 27 2015 16:31:37
  31. _STATISTICS_WRITING_DATE_UTC             : 2015-05-28 00:33:32
  32. _STATISTICS_TAGS                         : BPS DURATION NUMBER_OF_FRAMES NUMBER_OF_BYTES

  33. Audio
  34. ID                                       : 2
  35. Format                                   : DTS
  36. Format/Info                              : Digital Theater Systems
  37. Mode                                     : 16
  38. Format settings, Endianness              : Big
  39. Codec ID                                 : A_DTS
  40. Duration                                 : 39mn 7s
  41. Bit rate mode                            : Constant
  42. Bit rate                                 : 1 509 Kbps
  43. Channel(s)                               : 6 channels
  44. Channel positions                        : Front: L C R, Side: L R, LFE
  45. Sampling rate                            : 48.0 KHz
  46. Bit depth                                : 24 bits
  47. Compression mode                         : Lossy
  48. Stream size                              : 422 MiB (13%)
  49. Language                                 : English
  50. Default                                  : Yes
  51. Forced                                   : No
复制代码

未知世界的秘密 Mysteries.of.the.Unseen.World.2013.RERIP.1080p.BluRay.x264-SADPANDA 3.27GB-2.png






开通VIP免费下载本站所有资源---点这里
新手必看:资源下载常见问题---点这里
回复

使用道具 举报

发表于 2019-9-11 10:05:05 | 显示全部楼层

这东西我收了!谢谢楼主!蓝光电影网真好!
开通VIP免费下载本站所有资源---点这里
新手必看:资源下载常见问题---点这里
回复 支持 反对

使用道具 举报

发表于 2019-9-11 14:20:46 | 显示全部楼层
豆瓣评分比国外评分高那么多?!呵呵……
开通VIP免费下载本站所有资源---点这里
新手必看:资源下载常见问题---点这里
回复 支持 反对

使用道具 举报

懒得打字嘛,点击右侧快捷回复 【右侧内容,后台自定义】
您需要登录后才可以回帖 登录 | 立即加入

本版积分规则

现在加入蓝光电影网,注册一个账号

QQ| 手机版|小黑屋| 蓝光电影网 |网站地图

Copyright © 2015-2019 Comsenz Inc.  Template by 蓝光电影网 All Rights Reserved.

Powered by 蓝光电影网 X3.4

特别声明:本站所有资源均由网上收集而来,版权归原影音公司所有,如果侵犯了你的权益,请通知我们,我们会及时删除侵权内容.

快速回复 返回顶部 返回列表