找回密码

蓝光电影网

查看: 46|回复: 0

[纪录] 北极熊:一个夏天的奥德赛 Polar.Bears.A.Summer.Odysseys.2012.1080p.BluRay.x264-NORDiCHD 4.37G

[复制链接]

 成长值: 1420

发表于 2019-9-10 13:46:34 | 显示全部楼层 |阅读模式
北极熊:一个夏天的奥德赛 Polar.Bears.A.Summer.Odysseys.2012.1080p.BluRay.x264-NORDiCHD 4.37G-1.png

译  名 北极熊:一个夏天的奥德赛 / Eisb?ren 3D / 北极熊:夏季远行
片  名 Polar Bears:  A Summer Odyssey
年  代 2012
产  地 加拿大 Canada
类  别 纪录片
语  言 英语
上映日期 2012-04-08(加拿大)
IMDb评分  7.2/10 from 289 users
IMDb链接  http://www.imdb.com/title/tt2403931
豆瓣评分 8.5/10 from 994 users
豆瓣链接 https://movie.douban.com/subject/20426944/
片  长 50分钟
导  演 萨拉?罗伯森 Sarah Robertson
主  演 大卫?铃木 David Suzuki


标  签 纪录片 | 北极熊 | 加拿大 | 动物 | 自然 | 2012 | 温情 | 北极熊:一个夏天的奥德赛

简  介  

  Polar Bears in Hudson Bay struggle in a green world. Up close and Personal, originally shot all on native 3D.
  1. Video
  2. ID                                       : 1
  3. Format                                   : AVC
  4. Format/Info                              : Advanced Video Codec
  5. Format profile                           : <a href="/cdn-cgi/l/email-protection" class="__cf_email__" data-cfemail="6e260709062e225a405f">High@L4.1</a>
  6. Format settings, CABAC                   : Yes
  7. Format settings, ReFrames                : 4 frames
  8. Codec ID                                 : V_MPEG4/ISO/AVC
  9. Duration                                 : 50mn 5s
  10. Bit rate                                 : 11.0 Mbps
  11. Width                                    : 1 920 pixels
  12. Height                                   : 1 080 pixels
  13. Display aspect ratio                     : 16:9
  14. Frame rate mode                          : Constant
  15. Frame rate                               : 23.976 (24000/1001) fps
  16. Color space                              : YUV
  17. Chroma subsampling                       : 4:2:0
  18. Bit depth                                : 8 bits
  19. Scan type                                : Progressive
  20. Bits/(Pixel*Frame)                       : 0.221
  21. Stream size                              : 3.75 GiB (86%)
  22. Writing library                          : x264 core 129 r2245 bc13772
  23. Encoding settings                        : cabac=1 / ref=4 / deblock=1:0:0 / analyse=0x3:0x133 / me=umh / subme=7 / psy=1 / psy_rd=1.00:0.00 / mixed_ref=0 / me_range=16 / chroma_me=1 / trellis=1 / 8x8dct=1 / cqm=0 / deadzone=21,11 / fast_pskip=0 / chroma_qp_offset=-2 / threads=12 / lookahead_threads=2 / sliced_threads=0 / nr=0 / decimate=1 / interlaced=0 / bluray_compat=0 / constrained_intra=0 / bframes=5 / b_pyramid=2 / b_adapt=1 / b_bias=0 / direct=1 / weightb=1 / open_gop=0 / weightp=2 / keyint=240 / keyint_min=23 / scenecut=40 / intra_refresh=0 / rc_lookahead=40 / rc=2pass / mbtree=1 / bitrate=10973 / ratetol=1.0 / qcomp=0.60 / qpmin=10 / qpmax=51 / qpstep=4 / cplxblur=20.0 / qblur=0.5 / ip_ratio=1.40 / aq=1:1.00
  24. Language                                 : English
  25. Default                                  : Yes
  26. Forced                                   : No

  27. Audio
  28. ID                                       : 2
  29. Format                                   : DTS
  30. Format/Info                              : Digital Theater Systems
  31. Mode                                     : 16
  32. Format settings, Endianness              : Big
  33. Codec ID                                 : A_DTS
  34. Duration                                 : 50mn 5s
  35. Bit rate mode                            : Constant
  36. Bit rate                                 : 1 509 Kbps
  37. Channel(s)                               : 6 channels
  38. Channel positions                        : Front: L C R, Side: L R, LFE
  39. Sampling rate                            : 48.0 KHz
  40. Frame rate                               : 93.750 fps (512 spf)
  41. Bit depth                                : 24 bits
  42. Compression mode                         : Lossy
  43. Stream size                              : 541 MiB (12%)
  44. Language                                 : English
  45. Default                                  : Yes
  46. Forced                                   : No

  47. Text
  48. ID                                       : 3
  49. Format                                   : UTF-8
  50. Codec ID                                 : S_TEXT/UTF8
  51. Codec ID/Info                            : UTF-8 Plain Text
  52. Language                                 : English
  53. Default                                  : No
  54. Forced                                   : No

  55. Menu
  56. 00:00:00.000                             : en:00:00:00.000
  57. 00:07:05.842                             : en:00:07:05.842
  58. 00:12:28.873                             : en:00:12:28.873
  59. 00:18:31.110                             : en:00:18:31.110
  60. 00:26:59.409                             : en:00:26:59.409
  61. 00:33:01.313                             : en:00:33:01.313
  62. 00:37:48.057                             : en:00:37:48.057
  63. 00:42:21.414                             : en:00:42:21.414
复制代码

北极熊:一个夏天的奥德赛 Polar.Bears.A.Summer.Odysseys.2012.1080p.BluRay.x264-NORDiCHD 4.37G-2.png 北极熊:一个夏天的奥德赛 Polar.Bears.A.Summer.Odysseys.2012.1080p.BluRay.x264-NORDiCHD 4.37G-3.png 北极熊:一个夏天的奥德赛 Polar.Bears.A.Summer.Odysseys.2012.1080p.BluRay.x264-NORDiCHD 4.37G-4.png 北极熊:一个夏天的奥德赛 Polar.Bears.A.Summer.Odysseys.2012.1080p.BluRay.x264-NORDiCHD 4.37G-5.png 北极熊:一个夏天的奥德赛 Polar.Bears.A.Summer.Odysseys.2012.1080p.BluRay.x264-NORDiCHD 4.37G-6.png 北极熊:一个夏天的奥德赛 Polar.Bears.A.Summer.Odysseys.2012.1080p.BluRay.x264-NORDiCHD 4.37G-7.png






开通VIP免费下载本站所有资源---点这里
新手必看:资源下载常见问题---点这里
回复

使用道具 举报

懒得打字嘛,点击右侧快捷回复 【右侧内容,后台自定义】
您需要登录后才可以回帖 登录 | 立即加入

本版积分规则

现在加入蓝光电影网,注册一个账号

QQ| 手机版|小黑屋| 蓝光电影网 |网站地图

Copyright © 2015-2019 Comsenz Inc.  Template by 蓝光电影网 All Rights Reserved.

Powered by 蓝光电影网 X3.4

特别声明:本站所有资源均由网上收集而来,版权归原影音公司所有,如果侵犯了你的权益,请通知我们,我们会及时删除侵权内容.

快速回复 返回顶部 返回列表