找回密码

蓝光电影网

查看: 232|回复: 4

[动作] 精英出击/总司令 General.Commander.2019.1080p.BluRay.x264.DTS-FGT 6.69GB

[复制链接]

 成长值: 1420

发表于 2019-9-10 13:45:39 | 显示全部楼层 |阅读模式
精英出击/总司令 General.Commander.2019.1080p.BluRay.x264.DTS-FGT 6.69GB-1.png

译  名 精英出击 / 总司令
片  名 General Commander
年  代 2019
产  地 英国 / 匈牙利 / 菲律宾
类  别 动作 / 犯罪
语  言 英语
上映日期 2019-05-28(美国)
IMDb评分  3.9/10 from 269 users
IMDb链接  http://www.imdb.com/title/tt7043534
豆瓣评分 0/10 from 0 users
豆瓣链接 https://movie.douban.com/subject/27611392/
片  长 81分钟
导  演 Philippe Martinez
编  剧 Philippe Martinez / Lisa Gabriel / Megan Brown
主  演 史蒂文·席格 Steven Seagal
       索尼亚·考琳 Sonia Couling
       Bryon Gibson
       Mica Javier
       Soraya Torrens
       Jai Day
       Megan Brown
       Chris Pasone
       Billy Ray
       罗恩·斯穆安伯格 Ron Smoorenburg
       Valerio Zechini


标  签 2018 | 英国 | 电视剧 | 犯罪 | 未看 | 动作 | 剧情

简  介  

  本剧讲述了GRS特工杰克?亚历山大(史蒂文?席格 Steven Seagal 饰)在一名香港富翁的资助下,带领着他年轻的队员们打击最为险恶的罪犯的故事。
  1. Video
  2. ID                                       : 1
  3. Format                                   : AVC
  4. Format/Info                              : Advanced Video Codec
  5. Format profile                           : <a href="/cdn-cgi/l/email-protection" class="__cf_email__" data-cfemail="367e5f515e767a021807">High@L4.1</a>
  6. Format settings                          : CABAC / 5 Ref Frames
  7. Format settings, CABAC                   : Yes
  8. Format settings, Reference frames        : 5 frames
  9. Codec ID                                 : V_MPEG4/ISO/AVC
  10. Duration                                 : 1 h 25 min
  11. Bit rate                                 : 9 666 kb/s
  12. Width                                    : 1 920 pixels
  13. Height                                   : 808 pixels
  14. Display aspect ratio                     : 2.40:1
  15. Frame rate mode                          : Constant
  16. Frame rate                               : 23.976 (24000/1001) FPS
  17. Color space                              : YUV
  18. Chroma subsampling                       : 4:2:0
  19. Bit depth                                : 8 bits
  20. Scan type                                : Progressive
  21. Bits/(Pixel*Frame)                       : 0.260
  22. Stream size                              : 5.79 GiB (86%)
  23. Title                                    : General.Commander.2019.1080p.BluRay.x264.DTS-FGT
  24. Writing library                          : x264 core 157 r2969 d4099dd
  25. Encoding settings                        : cabac=1 / ref=5 / deblock=1:0:0 / analyse=0x3:0x113 / me=umh / subme=8 / psy=1 / psy_rd=1.00:0.00 / mixed_ref=1 / me_range=16 / chroma_me=1 / trellis=2 / 8x8dct=1 / cqm=0 / deadzone=21,11 / fast_pskip=1 / chroma_qp_offset=-2 / threads=16 / lookahead_threads=2 / sliced_threads=0 / nr=0 / decimate=1 / interlaced=0 / bluray_compat=0 / constrained_intra=0 / bframes=3 / b_pyramid=2 / b_adapt=2 / b_bias=0 / direct=3 / weightb=1 / open_gop=0 / weightp=2 / keyint=240 / keyint_min=23 / scenecut=40 / intra_refresh=0 / rc_lookahead=50 / rc=2pass / mbtree=1 / bitrate=9666 / ratetol=1.0 / qcomp=0.60 / qpmin=0 / qpmax=69 / qpstep=4 / cplxblur=20.0 / qblur=0.5 / ip_ratio=1.40 / aq=1:1.00
  26. Language                                 : English
  27. Default                                  : Yes
  28. Forced                                   : Yes

  29. Audio
  30. ID                                       : 2
  31. Format                                   : DTS
  32. Format/Info                              : Digital Theater Systems
  33. Codec ID                                 : A_DTS
  34. Duration                                 : 1 h 25 min
  35. Bit rate mode                            : Constant
  36. Bit rate                                 : 1 509 kb/s
  37. Channel(s)                               : 6 channels
  38. Channel layout                           : C L R Ls Rs LFE
  39. Sampling rate                            : 48.0 kHz
  40. Frame rate                               : 93.750 FPS (512 SPF)
  41. Bit depth                                : 24 bits
  42. Compression mode                         : Lossy
  43. Stream size                              : 925 MiB (14%)
  44. Title                                    : General.Commander.2019.1080p.BluRay.x264.DTS-FGT
  45. Language                                 : English
  46. Default                                  : Yes
  47. Forced                                   : No

  48. Text #1
  49. ID                                       : 3
  50. Format                                   : UTF-8
  51. Codec ID                                 : S_TEXT/UTF8
  52. Codec ID/Info                            : UTF-8 Plain Text
  53. Duration                                 : 1 h 8 min
  54. Bit rate                                 : 7 b/s
  55. Count of elements                        : 151
  56. Stream size                              : 3.68 KiB (0%)
  57. Title                                    : FORCED
  58. Language                                 : English
  59. Default                                  : Yes
  60. Forced                                   : Yes

  61. Text #2
  62. ID                                       : 4
  63. Format                                   : UTF-8
  64. Codec ID                                 : S_TEXT/UTF8
  65. Codec ID/Info                            : UTF-8 Plain Text
  66. Duration                                 : 1 h 24 min
  67. Bit rate                                 : 47 b/s
  68. Count of elements                        : 1036
  69. Stream size                              : 29.8 KiB (0%)
  70. Language                                 : English
  71. Default                                  : No
  72. Forced                                   : No

  73. Menu
  74. 00:00:00.000                             : en:00:00:00.000
  75. 00:13:48.828                             : en:00:13:48.828
  76. 00:25:04.586                             : en:00:25:04.586
  77. 00:36:05.789                             : en:00:36:05.789
  78. 00:47:17.334                             : en:00:47:17.334
  79. 00:58:56.867                             : en:00:58:56.867
  80. 01:11:05.052                             : en:01:11:05.052
  81. 01:22:28.777                             : en:01:22:28.777
复制代码

精英出击/总司令 General.Commander.2019.1080p.BluRay.x264.DTS-FGT 6.69GB-2.png 精英出击/总司令 General.Commander.2019.1080p.BluRay.x264.DTS-FGT 6.69GB-3.png 精英出击/总司令 General.Commander.2019.1080p.BluRay.x264.DTS-FGT 6.69GB-4.png






开通VIP免费下载本站所有资源---点这里
新手必看:资源下载常见问题---点这里
回复

使用道具 举报

发表于 2019-9-10 14:24:20 | 显示全部楼层

楼主太厉害了!楼主,电影应该很好看我觉得蓝光电影网真是个好地方!
开通VIP免费下载本站所有资源---点这里
新手必看:资源下载常见问题---点这里
回复 支持 反对

使用道具 举报

发表于 2019-9-10 14:30:00 | 显示全部楼层
感谢楼主分享!
开通VIP免费下载本站所有资源---点这里
新手必看:资源下载常见问题---点这里
回复 支持 反对

使用道具 举报

发表于 2019-9-11 11:02:34 | 显示全部楼层
楼主发贴辛苦了,谢谢楼主分享!我觉得蓝光电影网是注册对了!
开通VIP免费下载本站所有资源---点这里
新手必看:资源下载常见问题---点这里
回复 支持 反对

使用道具 举报

发表于 2019-9-11 22:36:54 | 显示全部楼层
感谢楼主分享,好片!
开通VIP免费下载本站所有资源---点这里
新手必看:资源下载常见问题---点这里
回复 支持 反对

使用道具 举报

懒得打字嘛,点击右侧快捷回复 【右侧内容,后台自定义】
您需要登录后才可以回帖 登录 | 立即加入

本版积分规则

现在加入蓝光电影网,注册一个账号

QQ| 手机版|小黑屋| 蓝光电影网 |网站地图

Copyright © 2015-2019 Comsenz Inc.  Template by 蓝光电影网 All Rights Reserved.

Powered by 蓝光电影网 X3.4

特别声明:本站所有资源均由网上收集而来,版权归原影音公司所有,如果侵犯了你的权益,请通知我们,我们会及时删除侵权内容.

快速回复 返回顶部 返回列表