找回密码

蓝光电影网

查看: 116|回复: 4

[REMUX.HEVC] 赌城风云/赌国风云 Casino.1995.2160p.BluRay.REMUX.HEVC.DTS-X.7.1-FGT 79.63GB

[复制链接]

 成长值: 1345

发表于 7 天前 | 显示全部楼层 |阅读模式
赌城风云/赌国风云 Casino.1995.2160p.BluRay.REMUX.HEVC.DTS-X.7.1-FGT 79.63GB-1.png

译  名 赌城风云 / 赌国风云 / 赌场
片  名 Casino
年  代 1995
产  地 美国 / 法国
类  别 剧情 / 传记 / 犯罪
语  言 英语 / 法语
上映日期 1995-11-22
IMDb评分  8.2/10 from 419999 users
IMDb链接  http://www.imdb.com/title/tt0112641
豆瓣评分 8.2/10 from 24223 users
豆瓣链接 https://movie.douban.com/subject/1299799/
片  长 178 分钟
导  演 Martin Scorsese
编  剧 Nicholas Pileggi / Martin Scorsese
主  演 Robert De Niro
       Sharon Stone
       Joe Pesci
       James Woods
       Frank Vincent


标  签 黑帮 | 罗伯特·德尼罗 | 马丁·斯科塞斯 | 美国 | 犯罪 | MartinScorsese | RobertDeNiro | 美国电影

简  介  

  电影《赌城风云》是由大导演马丁·斯科塞斯与老拍档罗伯特·德尼罗的第八度合作。萨姆·“埃斯”·罗思坦(罗伯特·德尼罗 Robert De Niro 饰)抱着“赌博是一桩需要认真对待的事业”这个信念经营这一家拉斯维加斯的赌场。这个信念使他的赌场生意兴隆,而也让他成为富四一方的大亨。但是自从他娶了妓女出身的金姬(莎朗·斯通 Sharon Stone 饰)后,一切都发生了改变。金姬是个贪得无厌,嗜好酒和毒品的美丽女人,对前男友旧情不忘甚至给他送钱;黑社会老大派来保护萨姆的尼基(乔·佩西 Joe Pesci 饰)总是触犯法律,被警方禁止踏足赌场,还不量力要当老板;萨姆开除了不负责任的雇员却得罪了当地的官员;更糟糕的是,萨姆和昔日的合作伙伴间的摩擦加剧。所有的一切,都使萨姆心神不宁……

获奖情况  

  第68届奥斯卡金像奖(1996)
  最佳女主角(提名) 莎朗·斯通
  1. Video
  2. ID                                       : 1
  3. Format                                   : HEVC
  4. Format/Info                              : High Efficiency Video Coding
  5. Format profile                           : Main <a href="/cdn-cgi/l/email-protection" class="__cf_email__" data-cfemail="81b0b1c1cdb4afb0">[email protected]</a>@High
  6. HDR format                               : SMPTE ST 2086, HDR10 compatible
  7. Codec ID                                 : V_MPEGH/ISO/HEVC
  8. Duration                                 : 2 h 58 min
  9. Bit rate                                 : 57.1 Mb/s
  10. Width                                    : 3 840 pixels
  11. Height                                   : 2 160 pixels
  12. Display aspect ratio                     : 16:9
  13. Frame rate mode                          : Constant
  14. Frame rate                               : 23.976 (24000/1001) FPS
  15. Color space                              : YUV
  16. Chroma subsampling                       : 4:2:0 (Type 2)
  17. Bit depth                                : 10 bits
  18. Bits/(Pixel*Frame)                       : 0.287
  19. Stream size                              : 71.0 GiB (89%)
  20. Title                                    : Casino.1995.2160p.BluRay.REMUX.HEVC.DTS-X.7.1-FGT
  21. Language                                 : English
  22. Default                                  : No
  23. Forced                                   : No
  24. Color range                              : Limited
  25. Color primaries                          : BT.2020
  26. Transfer characteristics                 : PQ
  27. Matrix coefficients                      : BT.2020 non-constant
  28. Mastering display color primaries        : Display P3
  29. Mastering display luminance              : min: 0.0050 cd/m2, max: 1000 cd/m2
  30. Maximum Content Light Level              : 1000 cd/m2
  31. Maximum Frame-Average Light Level        : 243 cd/m2

  32. Audio #1
  33. ID                                       : 2
  34. Format                                   : DTS XLL X
  35. Format/Info                              : Digital Theater Systems
  36. Commercial name                          : DTS-HD Master Audio
  37. Codec ID                                 : A_DTS
  38. Duration                                 : 2 h 58 min
  39. Bit rate mode                            : Variable
  40. Bit rate                                 : 3 508 kb/s
  41. Channel(s)                               : 8 channels
  42. Channel(s)_Original                      : Object Based
  43. Channel layout                           : Object Based
  44. Sampling rate                            : 48.0 kHz
  45. Frame rate                               : 93.750 FPS (512 SPF)
  46. Bit depth                                : 24 bits
  47. Stream size                              : 4.37 GiB (5%)
  48. Title                                    : Casino.1995.2160p.BluRay.REMUX.HEVC.DTS-X.7.1-FGT
  49. Language                                 : English
  50. Default                                  : Yes
  51. Forced                                   : No

  52. Audio #2
  53. ID                                       : 3
  54. Format                                   : DTS
  55. Format/Info                              : Digital Theater Systems
  56. Codec ID                                 : A_DTS
  57. Duration                                 : 2 h 58 min
  58. Bit rate mode                            : Constant
  59. Bit rate                                 : 768 kb/s
  60. Channel(s)                               : 6 channels
  61. Channel layout                           : C L R Ls Rs LFE
  62. Sampling rate                            : 48.0 kHz
  63. Frame rate                               : 93.750 FPS (512 SPF)
  64. Bit depth                                : 24 bits
  65. Compression mode                         : Lossy
  66. Stream size                              : 979 MiB (1%)
  67. Title                                    : Casino.1995.2160p.BluRay.REMUX.HEVC.DTS-X.7.1-FGT
  68. Language                                 : French
  69. Default                                  : No
  70. Forced                                   : No

  71. Audio #3
  72. ID                                       : 4
  73. Format                                   : DTS
  74. Format/Info                              : Digital Theater Systems
  75. Codec ID                                 : A_DTS
  76. Duration                                 : 2 h 58 min
  77. Bit rate mode                            : Constant
  78. Bit rate                                 : 768 kb/s
  79. Channel(s)                               : 6 channels
  80. Channel layout                           : C L R Ls Rs LFE
  81. Sampling rate                            : 48.0 kHz
  82. Frame rate                               : 93.750 FPS (512 SPF)
  83. Bit depth                                : 24 bits
  84. Compression mode                         : Lossy
  85. Stream size                              : 979 MiB (1%)
  86. Title                                    : Casino.1995.2160p.BluRay.REMUX.HEVC.DTS-X.7.1-FGT
  87. Language                                 : Spanish
  88. Default                                  : No
  89. Forced                                   : No

  90. Audio #4
  91. ID                                       : 5
  92. Format                                   : DTS
  93. Format/Info                              : Digital Theater Systems
  94. Codec ID                                 : A_DTS
  95. Duration                                 : 2 h 58 min
  96. Bit rate mode                            : Constant
  97. Bit rate                                 : 768 kb/s
  98. Channel(s)                               : 6 channels
  99. Channel layout                           : C L R Ls Rs LFE
  100. Sampling rate                            : 48.0 kHz
  101. Frame rate                               : 93.750 FPS (512 SPF)
  102. Bit depth                                : 24 bits
  103. Compression mode                         : Lossy
  104. Stream size                              : 979 MiB (1%)
  105. Title                                    : Casino.1995.2160p.BluRay.REMUX.HEVC.DTS-X.7.1-FGT
  106. Language                                 : Japanese
  107. Default                                  : No
  108. Forced                                   : No

  109. Audio #5
  110. ID                                       : 6
  111. Format                                   : DTS
  112. Format/Info                              : Digital Theater Systems
  113. Codec ID                                 : A_DTS
  114. Duration                                 : 2 h 58 min
  115. Bit rate mode                            : Constant
  116. Bit rate                                 : 768 kb/s
  117. Channel(s)                               : 6 channels
  118. Channel layout                           : C L R Ls Rs LFE
  119. Sampling rate                            : 48.0 kHz
  120. Frame rate                               : 93.750 FPS (512 SPF)
  121. Bit depth                                : 24 bits
  122. Compression mode                         : Lossy
  123. Stream size                              : 979 MiB (1%)
  124. Title                                    : Casino.1995.2160p.BluRay.REMUX.HEVC.DTS-X.7.1-FGT
  125. Language                                 : Portuguese
  126. Default                                  : No
  127. Forced                                   : No

  128. Audio #6
  129. ID                                       : 7
  130. Format                                   : AC-3
  131. Format/Info                              : Audio Coding 3
  132. Commercial name                          : Dolby Digital
  133. Codec ID                                 : A_AC3
  134. Duration                                 : 2 h 58 min
  135. Bit rate mode                            : Constant
  136. Bit rate                                 : 192 kb/s
  137. Channel(s)                               : 2 channels
  138. Channel layout                           : L R
  139. Sampling rate                            : 48.0 kHz
  140. Frame rate                               : 31.250 FPS (1536 SPF)
  141. Bit depth                                : 16 bits
  142. Compression mode                         : Lossy
  143. Stream size                              : 245 MiB (0%)
  144. Title                                    : Casino.1995.2160p.BluRay.REMUX.HEVC.DTS-X.7.1-FGT
  145. Language                                 : English
  146. Service kind                             : Complete Main
  147. Default                                  : No
  148. Forced                                   : No

  149. Text #1
  150. ID                                       : 8
  151. Format                                   : UTF-8
  152. Codec ID                                 : S_TEXT/UTF8
  153. Codec ID/Info                            : UTF-8 Plain Text
  154. Duration                                 : 2 h 51 min
  155. Bit rate                                 : 99 b/s
  156. Count of elements                        : 2790
  157. Stream size                              : 125 KiB (0%)
  158. Title                                    : English-SRT
  159. Language                                 : English
  160. Default                                  : Yes
  161. Forced                                   : No

  162. Text #2
  163. ID                                       : 9
  164. Format                                   : PGS
  165. Muxing mode                              : zlib
  166. Codec ID                                 : S_HDMV/PGS
  167. Codec ID/Info                            : Picture based subtitle format used on BDs/HD-DVDs
  168. Duration                                 : 2 h 55 min
  169. Bit rate                                 : 66.1 kb/s
  170. Count of elements                        : 7288
  171. Stream size                              : 82.9 MiB (0%)
  172. Title                                    : English-PGS
  173. Language                                 : English
  174. Default                                  : No
  175. Forced                                   : No

  176. Text #3
  177. ID                                       : 10
  178. Format                                   : PGS
  179. Muxing mode                              : zlib
  180. Codec ID                                 : S_HDMV/PGS
  181. Codec ID/Info                            : Picture based subtitle format used on BDs/HD-DVDs
  182. Duration                                 : 2 h 55 min
  183. Bit rate                                 : 51.3 kb/s
  184. Count of elements                        : 5414
  185. Stream size                              : 64.5 MiB (0%)
  186. Title                                    : French-PGS
  187. Language                                 : French
  188. Default                                  : No
  189. Forced                                   : No

  190. Text #4
  191. ID                                       : 11
  192. Format                                   : PGS
  193. Muxing mode                              : zlib
  194. Codec ID                                 : S_HDMV/PGS
  195. Codec ID/Info                            : Picture based subtitle format used on BDs/HD-DVDs
  196. Duration                                 : 2 h 55 min
  197. Bit rate                                 : 39.8 kb/s
  198. Count of elements                        : 5252
  199. Stream size                              : 50.0 MiB (0%)
  200. Title                                    : Spanish-PGS
  201. Language                                 : Spanish
  202. Default                                  : No
  203. Forced                                   : No

  204. Text #5
  205. ID                                       : 12
  206. Format                                   : PGS
  207. Muxing mode                              : zlib
  208. Codec ID                                 : S_HDMV/PGS
  209. Codec ID/Info                            : Picture based subtitle format used on BDs/HD-DVDs
  210. Duration                                 : 2 h 57 min
  211. Bit rate                                 : 31.4 kb/s
  212. Count of elements                        : 4846
  213. Stream size                              : 39.9 MiB (0%)
  214. Title                                    : Japanese-PGS
  215. Language                                 : Japanese
  216. Default                                  : No
  217. Forced                                   : No

  218. Text #6
  219. ID                                       : 13
  220. Format                                   : PGS
  221. Muxing mode                              : zlib
  222. Codec ID                                 : S_HDMV/PGS
  223. Codec ID/Info                            : Picture based subtitle format used on BDs/HD-DVDs
  224. Duration                                 : 2 h 57 min
  225. Bit rate                                 : 53.3 kb/s
  226. Count of elements                        : 5520
  227. Stream size                              : 67.7 MiB (0%)
  228. Title                                    : Portuguese-PGS
  229. Language                                 : Portuguese
  230. Default                                  : No
  231. Forced                                   : No

  232. Text #7
  233. ID                                       : 14
  234. Format                                   : PGS
  235. Muxing mode                              : zlib
  236. Codec ID                                 : S_HDMV/PGS
  237. Codec ID/Info                            : Picture based subtitle format used on BDs/HD-DVDs
  238. Duration                                 : 2 h 54 min
  239. Bit rate                                 : 72.5 kb/s
  240. Count of elements                        : 6105
  241. Stream size                              : 90.5 MiB (0%)
  242. Title                                    : English-COMMENTARY-PGS
  243. Language                                 : English
  244. Default                                  : No
  245. Forced                                   : No

  246. Text #8
  247. ID                                       : 15
  248. Format                                   : PGS
  249. Muxing mode                              : zlib
  250. Codec ID                                 : S_HDMV/PGS
  251. Codec ID/Info                            : Picture based subtitle format used on BDs/HD-DVDs
  252. Duration                                 : 2 h 54 min
  253. Bit rate                                 : 42.7 kb/s
  254. Count of elements                        : 4251
  255. Stream size                              : 53.3 MiB (0%)
  256. Title                                    : Japanese-COMMENTARY-PGS
  257. Language                                 : Japanese
  258. Default                                  : No
  259. Forced                                   : No

  260. Text #9
  261. ID                                       : 16
  262. Format                                   : PGS
  263. Muxing mode                              : zlib
  264. Codec ID                                 : S_HDMV/PGS
  265. Codec ID/Info                            : Picture based subtitle format used on BDs/HD-DVDs
  266. Duration                                 : 2 h 55 min
  267. Bit rate                                 : 323 b/s
  268. Count of elements                        : 40
  269. Stream size                              : 416 KiB (0%)
  270. Title                                    : French-FORCED-PGS
  271. Language                                 : French
  272. Default                                  : No
  273. Forced                                   : No

  274. Text #10
  275. ID                                       : 17
  276. Format                                   : PGS
  277. Muxing mode                              : zlib
  278. Codec ID                                 : S_HDMV/PGS
  279. Codec ID/Info                            : Picture based subtitle format used on BDs/HD-DVDs
  280. Duration                                 : 2 h 55 min
  281. Bit rate                                 : 251 b/s
  282. Count of elements                        : 36
  283. Stream size                              : 324 KiB (0%)
  284. Title                                    : Spanish-FORCED-PGS
  285. Language                                 : Spanish
  286. Default                                  : No
  287. Forced                                   : No

  288. Text #11
  289. ID                                       : 18
  290. Format                                   : PGS
  291. Muxing mode                              : zlib
  292. Codec ID                                 : S_HDMV/PGS
  293. Codec ID/Info                            : Picture based subtitle format used on BDs/HD-DVDs
  294. Duration                                 : 2 h 57 min
  295. Bit rate                                 : 581 b/s
  296. Count of elements                        : 84
  297. Stream size                              : 756 KiB (0%)
  298. Title                                    : Japanese-FORCED-PGS
  299. Language                                 : Japanese
  300. Default                                  : No
  301. Forced                                   : No

  302. Text #12
  303. ID                                       : 19
  304. Format                                   : PGS
  305. Muxing mode                              : zlib
  306. Codec ID                                 : S_HDMV/PGS
  307. Codec ID/Info                            : Picture based subtitle format used on BDs/HD-DVDs
  308. Duration                                 : 2 h 57 min
  309. Bit rate                                 : 288 b/s
  310. Count of elements                        : 34
  311. Stream size                              : 375 KiB (0%)
  312. Title                                    : Portuguese-FORCED-PGS
  313. Language                                 : Portuguese
  314. Default                                  : No
  315. Forced                                   : No

  316. Menu
  317. 00:00:00.000                             : en:Chapter 01
  318. 00:04:55.461                             : en:Chapter 02
  319. 00:21:57.816                             : en:Chapter 03
  320. 00:27:49.542                             : en:Chapter 04
  321. 00:33:46.399                             : en:Chapter 05
  322. 00:38:56.834                             : en:Chapter 06
  323. 00:58:22.999                             : en:Chapter 07
  324. 01:06:10.967                             : en:Chapter 08
  325. 01:26:24.470                             : en:Chapter 09
  326. 01:31:49.545                             : en:Chapter 10
  327. 02:00:29.305                             : en:Chapter 11
  328. 02:14:10.125                             : en:Chapter 12
  329. 02:28:31.277                             : en:Chapter 13
  330. 02:39:55.711                             : en:Chapter 14
  331. 02:46:56.047                             : en:Chapter 15
  332. 02:50:12.035                             : en:Chapter 16
复制代码

赌城风云/赌国风云 Casino.1995.2160p.BluRay.REMUX.HEVC.DTS-X.7.1-FGT 79.63GB-2.png 赌城风云/赌国风云 Casino.1995.2160p.BluRay.REMUX.HEVC.DTS-X.7.1-FGT 79.63GB-3.png 赌城风云/赌国风云 Casino.1995.2160p.BluRay.REMUX.HEVC.DTS-X.7.1-FGT 79.63GB-4.png






开通VIP免费下载本站所有资源---点这里
新手必看:资源下载、资源播放、字幕使用、等常见问题---点这里
回复

使用道具 举报

发表于 6 天前 | 显示全部楼层

既然你诚信诚意的推荐了,那我就勉为其难的看看吧!蓝光电影网不走平凡路。
开通VIP免费下载本站所有资源---点这里
新手必看:资源下载、资源播放、字幕使用、等常见问题---点这里
回复 支持 反对

使用道具 举报

发表于 6 天前 | 显示全部楼层
谢谢分享。
开通VIP免费下载本站所有资源---点这里
新手必看:资源下载、资源播放、字幕使用、等常见问题---点这里
回复

使用道具 举报

发表于 6 天前 | 显示全部楼层


既然你诚信诚意的推荐
开通VIP免费下载本站所有资源---点这里
新手必看:资源下载、资源播放、字幕使用、等常见问题---点这里
回复 支持 反对

使用道具 举报

 成长值: 380

发表于 5 天前 | 显示全部楼层
谢谢楼主无私分享。
开通VIP免费下载本站所有资源---点这里
新手必看:资源下载、资源播放、字幕使用、等常见问题---点这里
回复 支持 反对

使用道具 举报

懒得打字嘛,点击右侧快捷回复 【右侧内容,后台自定义】
您需要登录后才可以回帖 登录 | 立即加入

本版积分规则

现在加入蓝光电影网,注册一个账号

QQ| 手机版|小黑屋| 蓝光电影网 |网站地图

Copyright © 2015-2019 Comsenz Inc.  Template by 蓝光电影网 All Rights Reserved.

Powered by 蓝光电影网 X3.4

特别声明:本站所有资源均由网上收集而来,版权归原影音公司所有,如果侵犯了你的权益,请通知我们,我们会及时删除侵权内容.

快速回复 返回顶部 返回列表