找回密码

蓝光电影网

查看: 102|回复: 1

[8bit.SDR] X战警:黑凤凰 Dark.Phoenix.2019.2160p.BluRay.x264.8bit.SDR.DTS-HD.MA.TrueHD.7.1.Atmos-SWTYBLZ 27.05GB

[复制链接]

 成长值: 1345

发表于 7 天前 | 显示全部楼层 |阅读模式
X战警:黑凤凰 Dark.Phoenix.2019.2160p.BluRay.x264.8bit.SDR.DTS-HD.MA.TrueHD.7.1.Atmos-SWTYBLZ 27.05GB-1.png

译  名 X战警:黑凤凰 / X-Men: Dark Phoenix / X-Men: Supernova / X战警7 / X战警前传4 / X战警:超新星 / X战警:黑凤凰传奇 / 变种特攻:黑凤凰(港)
片  名 Dark Phoenix
年  代 2019
产  地 美国
类  别 动作 / 科幻 / 冒险
语  言 英语
上映日期 2019-06-06(中国大陆) / 2019-06-07(美国)
IMDb评分  6.0/10 from 55231 users
IMDb链接  http://www.imdb.com/title/tt6565702
豆瓣评分 6.0/10 from 114886 users
豆瓣链接 https://movie.douban.com/subject/26667010/
片  长 114分钟
导  演 西蒙·金伯格 Simon Kinberg
编  剧 西蒙·金伯格 Simon Kinberg / 约翰·拜恩 John Byrne / 克里斯·克雷蒙 Chris Claremont / 戴夫·科克勒姆 Dave Cockrum / 杰克·科比 Jack Kirby / 斯坦·李 Stan Lee
主  演 苏菲·特纳 Sophie Turner
       詹姆斯·麦卡沃伊 James McAvoy
       迈克尔·法斯宾德 Michael Fassbender
       尼古拉斯·霍尔特 Nicholas Hoult
       泰伊·谢里丹 Tye Sheridan
       杰西卡·查斯坦 Jessica Chastain
       詹妮弗·劳伦斯 Jennifer Lawrence
       柯蒂·斯密特-麦菲 Kodi Smit-McPhee
       亚历山德拉·希普 Alexandra Shipp
       埃文·彼得斯 Evan Peters
       丹尼尔·库德摩尔 Daniel Cudmore
       奥托·艾森度 Ato Essandoh
       伊万·乔尼凯特 Evan Jonigkeit
       莎莫·芳塔娜 Summer Fontana
       斯科特· 谢泼德 Scott Shepherd
       拉马尔·约翰逊 Lamar Johnson
       泰勒·艾略特·伯克 Tyler Elliot Burke
       安德鲁·斯特林 Andrew Stehlin
       朱利安·拜利 Julian Bailey
       Maurizio Terrazzano
       Josh McLaglen
       格雷格·洛 Gregg Lowe
       塞巴斯蒂安·麦克莱恩 Sebastian MacLean
       沙维尔·索特洛 Xavier Sotelo
       Karen Ivany
       奥利维耶·拉玛舒 Olivier Lamarche
       西蒙·阿兰 Simon Alain
       Alexandre Bélanger


标  签 X战警 | 漫威 | 科幻 | 美国 | 超级英雄 | 2019 | 漫画改编 | 动作

简  介  

  影片剧情围绕X战警中最受欢迎成员之一的琴·葛蕾展开,讲述她逐渐转化为黑凤凰的故事。在一次危及生命的太空营救行动中,琴被神秘的宇宙力量击中,成为最强大的变种人。此后琴·葛蕾不仅要设法掌控日益增长、极不稳定的力量,更要与自己内心的恶魔抗争,她的失控让整个X战警大家庭分崩离析,也让整个星球陷入毁灭的威胁之中。《X战警:黑凤凰》是迄今为止气氛最紧张、情感最丰富的一部《X战警》电影,是《X战警》系列20年来的集大成之作,大家非常熟悉和热爱的变种人大家庭即将面对最为强大的敌人——而她恰恰还是他们中的一员。

获奖情况  

  第5届豆瓣电影年度榜单(2018)
  最值得期待的外语电影(提名)
  1. Video
  2. ID                                       : 1
  3. Format                                   : AVC
  4. Format/Info                              : Advanced Video Codec
  5. Format profile                           : <a href="/cdn-cgi/l/email-protection" class="__cf_email__" data-cfemail="377f5e505f777b021906">[email protected]</a>
  6. Format settings                          : CABAC / 5 Ref Frames
  7. Format settings, CABAC                   : Yes
  8. Format settings, Reference frames        : 5 frames
  9. Codec ID                                 : V_MPEG4/ISO/AVC
  10. Duration                                 : 1 h 53 min
  11. Bit rate                                 : 24.1 Mb/s
  12. Width                                    : 3 840 pixels
  13. Height                                   : 1 606 pixels
  14. Display aspect ratio                     : 2.40:1
  15. Frame rate mode                          : Constant
  16. Frame rate                               : 23.976 (24000/1001) FPS
  17. Color space                              : YUV
  18. Chroma subsampling                       : 4:2:0
  19. Bit depth                                : 8 bits
  20. Scan type                                : Progressive
  21. Bits/(Pixel*Frame)                       : 0.163
  22. Stream size                              : 19.2 GiB (71%)
  23. Title                                    : Dark.Phoenix.2019.2160p.BluRay.x264.8bit.SDR.DTS-HD.MA.TrueHD.7.1.Atmos-SWTYBLZ
  24. Writing library                          : x264 core 157 r2935 545de2f
  25. Encoding settings                        : cabac=1 / ref=5 / deblock=1:-1:-1 / analyse=0x3:0x113 / me=umh / subme=10 / psy=1 / psy_rd=1.00:0.15 / mixed_ref=1 / me_range=48 / chroma_me=1 / trellis=2 / 8x8dct=1 / cqm=0 / deadzone=21,11 / fast_pskip=1 / chroma_qp_offset=-3 / threads=50 / lookahead_threads=4 / sliced_threads=0 / nr=0 / decimate=0 / interlaced=0 / bluray_compat=0 / constrained_intra=0 / bframes=3 / b_pyramid=2 / b_adapt=2 / b_bias=0 / direct=3 / weightb=1 / open_gop=0 / weightp=2 / keyint=250 / keyint_min=23 / scenecut=40 / intra_refresh=0 / rc_lookahead=50 / rc=crf / mbtree=1 / crf=18.0 / qcomp=0.60 / qpmin=0 / qpmax=69 / qpstep=4 / ip_ratio=1.40 / aq=1:1.00
  26. Default                                  : Yes
  27. Forced                                   : No

  28. Audio #1
  29. ID                                       : 2
  30. Format                                   : MLP FBA 16-ch
  31. Format/Info                              : Meridian Lossless Packing FBA with 16-channel presentation
  32. Commercial name                          : Dolby TrueHD with Dolby Atmos
  33. Codec ID                                 : A_TRUEHD
  34. Duration                                 : 1 h 53 min
  35. Bit rate mode                            : Variable
  36. Bit rate                                 : 4 775 kb/s
  37. Maximum bit rate                         : 7 464 kb/s
  38. Channel(s)                               : 8 channels
  39. Channel layout                           : L R C LFE Ls Rs Lb Rb
  40. Sampling rate                            : 48.0 kHz
  41. Frame rate                               : 1 200.000 FPS (40 SPF)
  42. Compression mode                         : Lossless
  43. Stream size                              : 3.80 GiB (14%)
  44. Title                                    : Dark.Phoenix.2019.2160p.BluRay.x264.8bit.SDR.DTS-HD.MA.TrueHD.7.1.Atmos-SWTYBLZ
  45. Language                                 : English
  46. Default                                  : Yes
  47. Forced                                   : No
  48. Number of dynamic objects                : 13
  49. Bed channel count                        : 1 channel
  50. Bed channel configuration                : LFE

  51. Audio #2
  52. ID                                       : 3
  53. Format                                   : DTS XLL
  54. Format/Info                              : Digital Theater Systems
  55. Commercial name                          : DTS-HD Master Audio
  56. Codec ID                                 : A_DTS
  57. Duration                                 : 1 h 53 min
  58. Bit rate mode                            : Variable
  59. Bit rate                                 : 4 163 kb/s
  60. Channel(s)                               : 8 channels
  61. Channel layout                           : C L R LFE Lb Rb Lss Rss
  62. Sampling rate                            : 48.0 kHz
  63. Frame rate                               : 93.750 FPS (512 SPF)
  64. Bit depth                                : 24 bits
  65. Compression mode                         : Lossless
  66. Stream size                              : 3.31 GiB (12%)
  67. Title                                    : Dark.Phoenix.2019.2160p.BluRay.x264.8bit.SDR.DTS-HD.MA.TrueHD.7.1.Atmos-SWTYBLZ
  68. Language                                 : English
  69. Default                                  : No
  70. Forced                                   : No

  71. Audio #3
  72. ID                                       : 4
  73. Format                                   : AC-3
  74. Format/Info                              : Audio Coding 3
  75. Commercial name                          : Dolby Digital
  76. Codec ID                                 : A_AC3
  77. Duration                                 : 1 h 53 min
  78. Bit rate mode                            : Constant
  79. Bit rate                                 : 640 kb/s
  80. Channel(s)                               : 6 channels
  81. Channel layout                           : L R C LFE Ls Rs
  82. Sampling rate                            : 48.0 kHz
  83. Frame rate                               : 31.250 FPS (1536 SPF)
  84. Bit depth                                : 16 bits
  85. Compression mode                         : Lossy
  86. Stream size                              : 522 MiB (2%)
  87. Title                                    : Dark.Phoenix.2019.2160p.BluRay.x264.8bit.SDR.DTS-HD.MA.TrueHD.7.1.Atmos-SWTYBLZ
  88. Language                                 : English
  89. Service kind                             : Complete Main
  90. Default                                  : No
  91. Forced                                   : No

  92. Text #1
  93. ID                                       : 5
  94. Format                                   : UTF-8
  95. Codec ID                                 : S_TEXT/UTF8
  96. Codec ID/Info                            : UTF-8 Plain Text
  97. Duration                                 : 31 min 20 s
  98. Bit rate                                 : 0 b/s
  99. Count of elements                        : 4
  100. Stream size                              : 169 Bytes (0%)
  101. Title                                    : English-FORCED-SRT
  102. Language                                 : English
  103. Default                                  : Yes
  104. Forced                                   : Yes

  105. Text #2
  106. ID                                       : 6
  107. Format                                   : UTF-8
  108. Codec ID                                 : S_TEXT/UTF8
  109. Codec ID/Info                            : UTF-8 Plain Text
  110. Duration                                 : 1 h 53 min
  111. Bit rate                                 : 38 b/s
  112. Count of elements                        : 1180
  113. Stream size                              : 31.6 KiB (0%)
  114. Title                                    : English-SRT
  115. Language                                 : English
  116. Default                                  : No
  117. Forced                                   : No

  118. Text #3
  119. ID                                       : 7
  120. Format                                   : UTF-8
  121. Codec ID                                 : S_TEXT/UTF8
  122. Codec ID/Info                            : UTF-8 Plain Text
  123. Duration                                 : 1 h 53 min
  124. Bit rate                                 : 43 b/s
  125. Count of elements                        : 1411
  126. Stream size                              : 36.0 KiB (0%)
  127. Title                                    : English-SDH-SRT
  128. Language                                 : English
  129. Default                                  : No
  130. Forced                                   : No

  131. Text #4
  132. ID                                       : 8
  133. Format                                   : PGS
  134. Muxing mode                              : zlib
  135. Codec ID                                 : S_HDMV/PGS
  136. Codec ID/Info                            : Picture based subtitle format used on BDs/HD-DVDs
  137. Duration                                 : 1 h 5 min
  138. Bit rate                                 : 135 b/s
  139. Count of elements                        : 11
  140. Stream size                              : 64.8 KiB (0%)
  141. Title                                    : English-FORCED-PGS
  142. Language                                 : English
  143. Default                                  : No
  144. Forced                                   : Yes

  145. Text #5
  146. ID                                       : 9
  147. Format                                   : PGS
  148. Muxing mode                              : zlib
  149. Codec ID                                 : S_HDMV/PGS
  150. Codec ID/Info                            : Picture based subtitle format used on BDs/HD-DVDs
  151. Duration                                 : 1 h 53 min
  152. Bit rate                                 : 28.1 kb/s
  153. Count of elements                        : 2830
  154. Stream size                              : 22.9 MiB (0%)
  155. Title                                    : English-SDH-PGS
  156. Language                                 : English
  157. Default                                  : No
  158. Forced                                   : No

  159. Text #6
  160. ID                                       : 10
  161. Format                                   : PGS
  162. Muxing mode                              : zlib
  163. Codec ID                                 : S_HDMV/PGS
  164. Codec ID/Info                            : Picture based subtitle format used on BDs/HD-DVDs
  165. Duration                                 : 1 h 52 min
  166. Bit rate                                 : 15.3 kb/s
  167. Count of elements                        : 2212
  168. Stream size                              : 12.4 MiB (0%)
  169. Title                                    : Chinese-PGS
  170. Language                                 : Chinese
  171. Default                                  : No
  172. Forced                                   : No

  173. Text #7
  174. ID                                       : 11
  175. Format                                   : PGS
  176. Muxing mode                              : zlib
  177. Codec ID                                 : S_HDMV/PGS
  178. Codec ID/Info                            : Picture based subtitle format used on BDs/HD-DVDs
  179. Duration                                 : 1 h 47 min
  180. Bit rate                                 : 22.7 kb/s
  181. Count of elements                        : 2460
  182. Stream size                              : 17.4 MiB (0%)
  183. Title                                    : Chinese-PGS
  184. Language                                 : Chinese
  185. Default                                  : No
  186. Forced                                   : No

  187. Text #8
  188. ID                                       : 12
  189. Format                                   : PGS
  190. Muxing mode                              : zlib
  191. Codec ID                                 : S_HDMV/PGS
  192. Codec ID/Info                            : Picture based subtitle format used on BDs/HD-DVDs
  193. Duration                                 : 1 h 52 min
  194. Bit rate                                 : 17.9 kb/s
  195. Count of elements                        : 2202
  196. Stream size                              : 14.4 MiB (0%)
  197. Title                                    : Chinese-PGS
  198. Language                                 : Chinese
  199. Default                                  : No
  200. Forced                                   : No

  201. Text #9
  202. ID                                       : 13
  203. Format                                   : PGS
  204. Muxing mode                              : zlib
  205. Codec ID                                 : S_HDMV/PGS
  206. Codec ID/Info                            : Picture based subtitle format used on BDs/HD-DVDs
  207. Duration                                 : 1 h 52 min
  208. Bit rate                                 : 19.2 kb/s
  209. Count of elements                        : 2202
  210. Stream size                              : 15.5 MiB (0%)
  211. Title                                    : Czech-PGS
  212. Language                                 : Czech
  213. Default                                  : No
  214. Forced                                   : No

  215. Text #10
  216. ID                                       : 14
  217. Format                                   : PGS
  218. Muxing mode                              : zlib
  219. Codec ID                                 : S_HDMV/PGS
  220. Codec ID/Info                            : Picture based subtitle format used on BDs/HD-DVDs
  221. Duration                                 : 1 h 52 min
  222. Bit rate                                 : 19.4 kb/s
  223. Count of elements                        : 1592
  224. Stream size                              : 15.6 MiB (0%)
  225. Title                                    : Danish-PGS
  226. Language                                 : Danish
  227. Default                                  : No
  228. Forced                                   : No

  229. Text #11
  230. ID                                       : 15
  231. Format                                   : PGS
  232. Muxing mode                              : zlib
  233. Codec ID                                 : S_HDMV/PGS
  234. Codec ID/Info                            : Picture based subtitle format used on BDs/HD-DVDs
  235. Duration                                 : 1 h 52 min
  236. Bit rate                                 : 19.4 kb/s
  237. Count of elements                        : 1514
  238. Stream size                              : 15.7 MiB (0%)
  239. Title                                    : Dutch-PGS
  240. Language                                 : Dutch
  241. Default                                  : No
  242. Forced                                   : No

  243. Text #12
  244. ID                                       : 16
  245. Format                                   : PGS
  246. Muxing mode                              : zlib
  247. Codec ID                                 : S_HDMV/PGS
  248. Codec ID/Info                            : Picture based subtitle format used on BDs/HD-DVDs
  249. Duration                                 : 1 h 52 min
  250. Bit rate                                 : 20.7 kb/s
  251. Count of elements                        : 2198
  252. Stream size                              : 16.7 MiB (0%)
  253. Title                                    : Finnish-PGS
  254. Language                                 : Finnish
  255. Default                                  : No
  256. Forced                                   : No

  257. Text #13
  258. ID                                       : 17
  259. Format                                   : PGS
  260. Muxing mode                              : zlib
  261. Codec ID                                 : S_HDMV/PGS
  262. Codec ID/Info                            : Picture based subtitle format used on BDs/HD-DVDs
  263. Duration                                 : 1 h 52 min
  264. Bit rate                                 : 18.7 kb/s
  265. Count of elements                        : 2016
  266. Stream size                              : 15.1 MiB (0%)
  267. Title                                    : French-PGS
  268. Language                                 : French
  269. Default                                  : No
  270. Forced                                   : No

  271. Text #14
  272. ID                                       : 18
  273. Format                                   : PGS
  274. Muxing mode                              : zlib
  275. Codec ID                                 : S_HDMV/PGS
  276. Codec ID/Info                            : Picture based subtitle format used on BDs/HD-DVDs
  277. Duration                                 : 1 h 52 min
  278. Bit rate                                 : 21.6 kb/s
  279. Count of elements                        : 2054
  280. Stream size                              : 17.4 MiB (0%)
  281. Title                                    : German-PGS
  282. Language                                 : German
  283. Default                                  : No
  284. Forced                                   : No

  285. Text #15
  286. ID                                       : 19
  287. Format                                   : PGS
  288. Muxing mode                              : zlib
  289. Codec ID                                 : S_HDMV/PGS
  290. Codec ID/Info                            : Picture based subtitle format used on BDs/HD-DVDs
  291. Duration                                 : 1 h 52 min
  292. Bit rate                                 : 21.8 kb/s
  293. Count of elements                        : 2042
  294. Stream size                              : 17.6 MiB (0%)
  295. Title                                    : Hungarian-PGS
  296. Language                                 : Hungarian
  297. Default                                  : No
  298. Forced                                   : No

  299. Text #16
  300. ID                                       : 20
  301. Format                                   : PGS
  302. Muxing mode                              : zlib
  303. Codec ID                                 : S_HDMV/PGS
  304. Codec ID/Info                            : Picture based subtitle format used on BDs/HD-DVDs
  305. Duration                                 : 1 h 52 min
  306. Bit rate                                 : 20.9 kb/s
  307. Count of elements                        : 2198
  308. Stream size                              : 16.9 MiB (0%)
  309. Title                                    : Italian-PGS
  310. Language                                 : Italian
  311. Default                                  : No
  312. Forced                                   : No

  313. Text #17
  314. ID                                       : 21
  315. Format                                   : PGS
  316. Muxing mode                              : zlib
  317. Codec ID                                 : S_HDMV/PGS
  318. Codec ID/Info                            : Picture based subtitle format used on BDs/HD-DVDs
  319. Duration                                 : 1 h 52 min
  320. Bit rate                                 : 16.5 kb/s
  321. Count of elements                        : 2210
  322. Stream size                              : 13.3 MiB (0%)
  323. Title                                    : Korean-PGS
  324. Language                                 : Korean
  325. Default                                  : No
  326. Forced                                   : No

  327. Text #18
  328. ID                                       : 22
  329. Format                                   : PGS
  330. Muxing mode                              : zlib
  331. Codec ID                                 : S_HDMV/PGS
  332. Codec ID/Info                            : Picture based subtitle format used on BDs/HD-DVDs
  333. Duration                                 : 1 h 52 min
  334. Bit rate                                 : 20.8 kb/s
  335. Count of elements                        : 2202
  336. Stream size                              : 16.8 MiB (0%)
  337. Title                                    : Norwegian-PGS
  338. Language                                 : Norwegian
  339. Default                                  : No
  340. Forced                                   : No

  341. Text #19
  342. ID                                       : 23
  343. Format                                   : PGS
  344. Muxing mode                              : zlib
  345. Codec ID                                 : S_HDMV/PGS
  346. Codec ID/Info                            : Picture based subtitle format used on BDs/HD-DVDs
  347. Duration                                 : 1 h 52 min
  348. Bit rate                                 : 19.4 kb/s
  349. Count of elements                        : 2146
  350. Stream size                              : 15.7 MiB (0%)
  351. Title                                    : Polish-PGS
  352. Language                                 : Polish
  353. Default                                  : No
  354. Forced                                   : No

  355. Text #20
  356. ID                                       : 24
  357. Format                                   : PGS
  358. Muxing mode                              : zlib
  359. Codec ID                                 : S_HDMV/PGS
  360. Codec ID/Info                            : Picture based subtitle format used on BDs/HD-DVDs
  361. Duration                                 : 1 h 52 min
  362. Bit rate                                 : 23.1 kb/s
  363. Count of elements                        : 2210
  364. Stream size                              : 18.6 MiB (0%)
  365. Title                                    : Portuguese-PGS
  366. Language                                 : Portuguese
  367. Default                                  : No
  368. Forced                                   : No

  369. Text #21
  370. ID                                       : 25
  371. Format                                   : PGS
  372. Muxing mode                              : zlib
  373. Codec ID                                 : S_HDMV/PGS
  374. Codec ID/Info                            : Picture based subtitle format used on BDs/HD-DVDs
  375. Duration                                 : 1 h 52 min
  376. Bit rate                                 : 21.7 kb/s
  377. Count of elements                        : 2200
  378. Stream size                              : 17.5 MiB (0%)
  379. Title                                    : Russian-PGS
  380. Language                                 : Russian
  381. Default                                  : No
  382. Forced                                   : No

  383. Text #22
  384. ID                                       : 26
  385. Format                                   : PGS
  386. Muxing mode                              : zlib
  387. Codec ID                                 : S_HDMV/PGS
  388. Codec ID/Info                            : Picture based subtitle format used on BDs/HD-DVDs
  389. Duration                                 : 1 h 52 min
  390. Bit rate                                 : 21.6 kb/s
  391. Count of elements                        : 2158
  392. Stream size                              : 17.4 MiB (0%)
  393. Title                                    : Spanish-PGS
  394. Language                                 : Spanish
  395. Default                                  : No
  396. Forced                                   : No

  397. Text #23
  398. ID                                       : 27
  399. Format                                   : PGS
  400. Muxing mode                              : zlib
  401. Codec ID                                 : S_HDMV/PGS
  402. Codec ID/Info                            : Picture based subtitle format used on BDs/HD-DVDs
  403. Duration                                 : 1 h 52 min
  404. Bit rate                                 : 21.3 kb/s
  405. Count of elements                        : 2116
  406. Stream size                              : 17.2 MiB (0%)
  407. Title                                    : Spanish-PGS
  408. Language                                 : Spanish
  409. Default                                  : No
  410. Forced                                   : No

  411. Text #24
  412. ID                                       : 28
  413. Format                                   : PGS
  414. Muxing mode                              : zlib
  415. Codec ID                                 : S_HDMV/PGS
  416. Codec ID/Info                            : Picture based subtitle format used on BDs/HD-DVDs
  417. Duration                                 : 1 h 52 min
  418. Bit rate                                 : 21.4 kb/s
  419. Count of elements                        : 2202
  420. Stream size                              : 17.3 MiB (0%)
  421. Title                                    : Swedish-PGS
  422. Language                                 : Swedish
  423. Default                                  : No
  424. Forced                                   : No

  425. Text #25
  426. ID                                       : 29
  427. Format                                   : PGS
  428. Muxing mode                              : zlib
  429. Codec ID                                 : S_HDMV/PGS
  430. Codec ID/Info                            : Picture based subtitle format used on BDs/HD-DVDs
  431. Duration                                 : 1 h 52 min
  432. Bit rate                                 : 18.9 kb/s
  433. Count of elements                        : 2204
  434. Stream size                              : 15.3 MiB (0%)
  435. Title                                    : Thai-PGS
  436. Language                                 : Thai
  437. Default                                  : No
  438. Forced                                   : No

  439. Menu
  440. 00:00:00.000                             : en:Chapter 01
  441. 00:03:28.541                             : en:Chapter 02
  442. 00:07:33.995                             : en:Chapter 03
  443. 00:11:41.867                             : en:Chapter 04
  444. 00:15:43.776                             : en:Chapter 05
  445. 00:18:37.074                             : en:Chapter 06
  446. 00:25:24.147                             : en:Chapter 07
  447. 00:31:40.023                             : en:Chapter 08
  448. 00:34:18.973                             : en:Chapter 09
  449. 00:40:07.113                             : en:Chapter 10
  450. 00:44:35.756                             : en:Chapter 11
  451. 00:49:07.319                             : en:Chapter 12
  452. 00:55:37.834                             : en:Chapter 13
  453. 00:58:57.075                             : en:Chapter 14
  454. 01:02:55.521                             : en:Chapter 15
  455. 01:10:39.777                             : en:Chapter 16
  456. 01:13:42.084                             : en:Chapter 17
  457. 01:19:32.893                             : en:Chapter 18
  458. 01:22:35.367                             : en:Chapter 19
  459. 01:25:48.351                             : en:Chapter 20
  460. 01:30:37.849                             : en:Chapter 21
  461. 01:32:47.603                             : en:Chapter 22
  462. 01:37:59.290                             : en:Chapter 23
  463. 01:45:00.711                             : en:Chapter 24
复制代码

X战警:黑凤凰 Dark.Phoenix.2019.2160p.BluRay.x264.8bit.SDR.DTS-HD.MA.TrueHD.7.1.Atmos-SWTYBLZ 27.05GB-2.png X战警:黑凤凰 Dark.Phoenix.2019.2160p.BluRay.x264.8bit.SDR.DTS-HD.MA.TrueHD.7.1.Atmos-SWTYBLZ 27.05GB-3.png X战警:黑凤凰 Dark.Phoenix.2019.2160p.BluRay.x264.8bit.SDR.DTS-HD.MA.TrueHD.7.1.Atmos-SWTYBLZ 27.05GB-4.png X战警:黑凤凰 Dark.Phoenix.2019.2160p.BluRay.x264.8bit.SDR.DTS-HD.MA.TrueHD.7.1.Atmos-SWTYBLZ 27.05GB-5.png X战警:黑凤凰 Dark.Phoenix.2019.2160p.BluRay.x264.8bit.SDR.DTS-HD.MA.TrueHD.7.1.Atmos-SWTYBLZ 27.05GB-6.png X战警:黑凤凰 Dark.Phoenix.2019.2160p.BluRay.x264.8bit.SDR.DTS-HD.MA.TrueHD.7.1.Atmos-SWTYBLZ 27.05GB-7.png X战警:黑凤凰 Dark.Phoenix.2019.2160p.BluRay.x264.8bit.SDR.DTS-HD.MA.TrueHD.7.1.Atmos-SWTYBLZ 27.05GB-8.png






开通VIP免费下载本站所有资源---点这里
新手必看:资源下载、资源播放、字幕使用、等常见问题---点这里
回复

使用道具 举报

发表于 6 天前 | 显示全部楼层
终于等到蓝光版出来了,谢谢楼主
开通VIP免费下载本站所有资源---点这里
新手必看:资源下载、资源播放、字幕使用、等常见问题---点这里
回复 支持 反对

使用道具 举报

懒得打字嘛,点击右侧快捷回复 【右侧内容,后台自定义】
您需要登录后才可以回帖 登录 | 立即加入

本版积分规则

现在加入蓝光电影网,注册一个账号

QQ| 手机版|小黑屋| 蓝光电影网 |网站地图

Copyright © 2015-2019 Comsenz Inc.  Template by 蓝光电影网 All Rights Reserved.

Powered by 蓝光电影网 X3.4

特别声明:本站所有资源均由网上收集而来,版权归原影音公司所有,如果侵犯了你的权益,请通知我们,我们会及时删除侵权内容.

快速回复 返回顶部 返回列表