找回密码

蓝光电影网

查看: 105|回复: 3

[10bit.SDR] X战警:黑凤凰 Dark.Phoenix.2019.2160p.BluRay.x265.10bit.SDR.DTS-HD.MA.TrueHD.7.1.Atmos-SWTYBLZ 25.92GB

[复制链接]

 成长值: 1345

发表于 7 天前 | 显示全部楼层 |阅读模式
X战警:黑凤凰 Dark.Phoenix.2019.2160p.BluRay.x265.10bit.SDR.DTS-HD.MA.TrueHD.7.1.Atmos-SWTYBLZ 25.92GB-1.png

译  名 X战警:黑凤凰 / X-Men: Dark Phoenix / X-Men: Supernova / X战警7 / X战警前传4 / X战警:超新星 / X战警:黑凤凰传奇 / 变种特攻:黑凤凰(港)
片  名 Dark Phoenix
年  代 2019
产  地 美国
类  别 动作 / 科幻 / 冒险
语  言 英语
上映日期 2019-06-06(中国大陆) / 2019-06-07(美国)
IMDb评分  6.0/10 from 55231 users
IMDb链接  http://www.imdb.com/title/tt6565702
豆瓣评分 6.0/10 from 114886 users
豆瓣链接 https://movie.douban.com/subject/26667010/
片  长 114分钟
导  演 西蒙·金伯格 Simon Kinberg
编  剧 西蒙·金伯格 Simon Kinberg / 约翰·拜恩 John Byrne / 克里斯·克雷蒙 Chris Claremont / 戴夫·科克勒姆 Dave Cockrum / 杰克·科比 Jack Kirby / 斯坦·李 Stan Lee
主  演 苏菲·特纳 Sophie Turner
       詹姆斯·麦卡沃伊 James McAvoy
       迈克尔·法斯宾德 Michael Fassbender
       尼古拉斯·霍尔特 Nicholas Hoult
       泰伊·谢里丹 Tye Sheridan
       杰西卡·查斯坦 Jessica Chastain
       詹妮弗·劳伦斯 Jennifer Lawrence
       柯蒂·斯密特-麦菲 Kodi Smit-McPhee
       亚历山德拉·希普 Alexandra Shipp
       埃文·彼得斯 Evan Peters
       丹尼尔·库德摩尔 Daniel Cudmore
       奥托·艾森度 Ato Essandoh
       伊万·乔尼凯特 Evan Jonigkeit
       莎莫·芳塔娜 Summer Fontana
       斯科特· 谢泼德 Scott Shepherd
       拉马尔·约翰逊 Lamar Johnson
       泰勒·艾略特·伯克 Tyler Elliot Burke
       安德鲁·斯特林 Andrew Stehlin
       朱利安·拜利 Julian Bailey
       Maurizio Terrazzano
       Josh McLaglen
       格雷格·洛 Gregg Lowe
       塞巴斯蒂安·麦克莱恩 Sebastian MacLean
       沙维尔·索特洛 Xavier Sotelo
       Karen Ivany
       奥利维耶·拉玛舒 Olivier Lamarche
       西蒙·阿兰 Simon Alain
       Alexandre Bélanger


标  签 X战警 | 漫威 | 科幻 | 美国 | 超级英雄 | 2019 | 漫画改编 | 动作

简  介  

  影片剧情围绕X战警中最受欢迎成员之一的琴·葛蕾展开,讲述她逐渐转化为黑凤凰的故事。在一次危及生命的太空营救行动中,琴被神秘的宇宙力量击中,成为最强大的变种人。此后琴·葛蕾不仅要设法掌控日益增长、极不稳定的力量,更要与自己内心的恶魔抗争,她的失控让整个X战警大家庭分崩离析,也让整个星球陷入毁灭的威胁之中。《X战警:黑凤凰》是迄今为止气氛最紧张、情感最丰富的一部《X战警》电影,是《X战警》系列20年来的集大成之作,大家非常熟悉和热爱的变种人大家庭即将面对最为强大的敌人——而她恰恰还是他们中的一员。

获奖情况  

  第5届豆瓣电影年度榜单(2018)
  最值得期待的外语电影(提名)
  1. Video
  2. ID                                       : 1
  3. Format                                   : HEVC
  4. Format/Info                              : High Efficiency Video Coding
  5. Format profile                           : Main <a href="/cdn-cgi/l/email-protection" class="__cf_email__" data-cfemail="c5f4f58589f0ebf4">[email protected]</a>@High
  6. Codec ID                                 : V_MPEGH/ISO/HEVC
  7. Duration                                 : 1 h 53 min
  8. Bit rate                                 : 22.6 Mb/s
  9. Width                                    : 3 840 pixels
  10. Height                                   : 1 606 pixels
  11. Display aspect ratio                     : 2.40:1
  12. Frame rate mode                          : Constant
  13. Frame rate                               : 23.976 (24000/1001) FPS
  14. Color space                              : YUV
  15. Chroma subsampling                       : 4:2:0
  16. Bit depth                                : 10 bits
  17. Bits/(Pixel*Frame)                       : 0.153
  18. Stream size                              : 18.0 GiB (70%)
  19. Title                                    : Dark.Phoenix.2019.2160p.BluRay.x265.10bit.SDR.DTS-HD.MA.TrueHD.7.1.Atmos-SWTYBLZ
  20. Writing library                          : x265 3.0ed72af837053:[Windows][GCC 8.2.0][64 bit] 10bit
  21. Encoding settings                        : cpuid=1111039 / frame-threads=16 / numa-pools=24,24,24,24 / wpp / no-pmode / no-pme / no-psnr / no-ssim / log-level=2 / input-csp=1 / input-res=3840x1606 / interlace=0 / total-frames=163902 / level-idc=51 / high-tier=1 / uhd-bd=0 / ref=3 / no-allow-non-conformance / repeat-headers / annexb / aud / hrd / info / hash=0 / no-temporal-layers / no-open-gop / min-keyint=1 / keyint=24 / gop-lookahead=0 / bframes=4 / b-adapt=2 / b-pyramid / bframe-bias=0 / rc-lookahead=25 / lookahead-slices=4 / scenecut=40 / radl=0 / no-splice / no-intra-refresh / ctu=64 / min-cu-size=8 / no-rect / no-amp / max-tu-size=32 / tu-inter-depth=1 / tu-intra-depth=1 / limit-tu=0 / rdoq-level=0 / dynamic-rd=0.00 / no-ssim-rd / signhide / no-tskip / nr-intra=0 / nr-inter=0 / no-constrained-intra / strong-intra-smoothing / max-merge=2 / limit-refs=3 / no-limit-modes / me=1 / subme=2 / merange=57 / temporal-mvp / weightp / no-weightb / no-analyze-src-pics / deblock=0:0 / no-sao / no-sao-non-deblock / rd=3 / no-early-skip / rskip / no-fast-intra / no-tskip-fast / no-cu-lossless / no-b-intra / no-splitrd-skip / rdpenalty=0 / psy-rd=2.00 / psy-rdoq=0.00 / no-rd-refine / no-lossless / cbqpoffs=0 / crqpoffs=0 / rc=crf / crf=16.0 / qcomp=0.60 / qpstep=4 / stats-write=0 / stats-read=0 / vbv-maxrate=160000 / vbv-bufsize=160000 / vbv-init=0.9 / crf-max=0.0 / crf-min=0.0 / ipratio=1.40 / pbratio=1.30 / aq-mode=1 / aq-strength=1.00 / cutree / zone-count=0 / no-strict-cbr / qg-size=32 / no-rc-grain / qpmax=69 / qpmin=0 / no-const-vbv / sar=1 / overscan=0 / videoformat=5 / range=0 / colorprim=2 / transfer=2 / colormatrix=2 / chromaloc=0 / display-window=0 / max-cll=0,0 / min-luma=0 / max-luma=1023 / log2-max-poc-lsb=8 / vui-timing-info / vui-hrd-info / slices=1 / opt-qp-pps / opt-ref-list-length-pps / no-multi-pass-opt-rps / scenecut-bias=0.05 / no-opt-cu-delta-qp / no-aq-motion / no-hdr / no-hdr-opt / no-dhdr10-opt / no-idr-recovery-sei / analysis-reuse-level=5 / scale-factor=0 / refine-intra=0 / refine-inter=0 / refine-mv=0 / refine-ctu-distortion=0 / no-limit-sao / ctu-info=0 / no-lowpass-dct / refine-analysis-type=0 / copy-pic=1 / max-ausize-factor=1.0 / no-dynamic-refine / no-single-sei / no-hevc-aq / qp-adaptation-range=1.00
  22. Default                                  : Yes
  23. Forced                                   : No

  24. Audio #1
  25. ID                                       : 2
  26. Format                                   : MLP FBA 16-ch
  27. Format/Info                              : Meridian Lossless Packing FBA with 16-channel presentation
  28. Commercial name                          : Dolby TrueHD with Dolby Atmos
  29. Codec ID                                 : A_TRUEHD
  30. Duration                                 : 1 h 53 min
  31. Bit rate mode                            : Variable
  32. Bit rate                                 : 4 775 kb/s
  33. Maximum bit rate                         : 7 464 kb/s
  34. Channel(s)                               : 8 channels
  35. Channel layout                           : L R C LFE Ls Rs Lb Rb
  36. Sampling rate                            : 48.0 kHz
  37. Frame rate                               : 1 200.000 FPS (40 SPF)
  38. Compression mode                         : Lossless
  39. Stream size                              : 3.80 GiB (15%)
  40. Title                                    : Dark.Phoenix.2019.2160p.BluRay.x265.10bit.SDR.DTS-HD.MA.TrueHD.7.1.Atmos-SWTYBLZ
  41. Language                                 : English
  42. Default                                  : Yes
  43. Forced                                   : No
  44. Number of dynamic objects                : 13
  45. Bed channel count                        : 1 channel
  46. Bed channel configuration                : LFE

  47. Audio #2
  48. ID                                       : 3
  49. Format                                   : DTS XLL
  50. Format/Info                              : Digital Theater Systems
  51. Commercial name                          : DTS-HD Master Audio
  52. Codec ID                                 : A_DTS
  53. Duration                                 : 1 h 53 min
  54. Bit rate mode                            : Variable
  55. Bit rate                                 : 4 163 kb/s
  56. Channel(s)                               : 8 channels
  57. Channel layout                           : C L R LFE Lb Rb Lss Rss
  58. Sampling rate                            : 48.0 kHz
  59. Frame rate                               : 93.750 FPS (512 SPF)
  60. Bit depth                                : 24 bits
  61. Compression mode                         : Lossless
  62. Stream size                              : 3.31 GiB (13%)
  63. Title                                    : Dark.Phoenix.2019.2160p.BluRay.x265.10bit.SDR.DTS-HD.MA.TrueHD.7.1.Atmos-SWTYBLZ
  64. Language                                 : English
  65. Default                                  : No
  66. Forced                                   : No

  67. Audio #3
  68. ID                                       : 4
  69. Format                                   : AC-3
  70. Format/Info                              : Audio Coding 3
  71. Commercial name                          : Dolby Digital
  72. Codec ID                                 : A_AC3
  73. Duration                                 : 1 h 53 min
  74. Bit rate mode                            : Constant
  75. Bit rate                                 : 640 kb/s
  76. Channel(s)                               : 6 channels
  77. Channel layout                           : L R C LFE Ls Rs
  78. Sampling rate                            : 48.0 kHz
  79. Frame rate                               : 31.250 FPS (1536 SPF)
  80. Bit depth                                : 16 bits
  81. Compression mode                         : Lossy
  82. Stream size                              : 522 MiB (2%)
  83. Title                                    : Dark.Phoenix.2019.2160p.BluRay.x265.10bit.SDR.DTS-HD.MA.TrueHD.7.1.Atmos-SWTYBLZ
  84. Language                                 : English
  85. Service kind                             : Complete Main
  86. Default                                  : No
  87. Forced                                   : No

  88. Text #1
  89. ID                                       : 5
  90. Format                                   : UTF-8
  91. Codec ID                                 : S_TEXT/UTF8
  92. Codec ID/Info                            : UTF-8 Plain Text
  93. Duration                                 : 31 min 20 s
  94. Bit rate                                 : 0 b/s
  95. Count of elements                        : 4
  96. Stream size                              : 169 Bytes (0%)
  97. Title                                    : English-FORCED-SRT
  98. Language                                 : English
  99. Default                                  : Yes
  100. Forced                                   : Yes

  101. Text #2
  102. ID                                       : 6
  103. Format                                   : UTF-8
  104. Codec ID                                 : S_TEXT/UTF8
  105. Codec ID/Info                            : UTF-8 Plain Text
  106. Duration                                 : 1 h 53 min
  107. Bit rate                                 : 38 b/s
  108. Count of elements                        : 1180
  109. Stream size                              : 31.6 KiB (0%)
  110. Title                                    : English-SRT
  111. Language                                 : English
  112. Default                                  : No
  113. Forced                                   : No

  114. Text #3
  115. ID                                       : 7
  116. Format                                   : UTF-8
  117. Codec ID                                 : S_TEXT/UTF8
  118. Codec ID/Info                            : UTF-8 Plain Text
  119. Duration                                 : 1 h 53 min
  120. Bit rate                                 : 43 b/s
  121. Count of elements                        : 1411
  122. Stream size                              : 36.0 KiB (0%)
  123. Title                                    : English-SDH-SRT
  124. Language                                 : English
  125. Default                                  : No
  126. Forced                                   : No

  127. Text #4
  128. ID                                       : 8
  129. Format                                   : PGS
  130. Muxing mode                              : zlib
  131. Codec ID                                 : S_HDMV/PGS
  132. Codec ID/Info                            : Picture based subtitle format used on BDs/HD-DVDs
  133. Duration                                 : 1 h 5 min
  134. Bit rate                                 : 135 b/s
  135. Count of elements                        : 11
  136. Stream size                              : 64.8 KiB (0%)
  137. Title                                    : English-FORCED-PGS
  138. Language                                 : English
  139. Default                                  : No
  140. Forced                                   : No

  141. Text #5
  142. ID                                       : 9
  143. Format                                   : PGS
  144. Muxing mode                              : zlib
  145. Codec ID                                 : S_HDMV/PGS
  146. Codec ID/Info                            : Picture based subtitle format used on BDs/HD-DVDs
  147. Duration                                 : 1 h 53 min
  148. Bit rate                                 : 28.1 kb/s
  149. Count of elements                        : 2830
  150. Stream size                              : 22.9 MiB (0%)
  151. Title                                    : English-SDH-PGS
  152. Language                                 : English
  153. Default                                  : No
  154. Forced                                   : No

  155. Text #6
  156. ID                                       : 10
  157. Format                                   : PGS
  158. Muxing mode                              : zlib
  159. Codec ID                                 : S_HDMV/PGS
  160. Codec ID/Info                            : Picture based subtitle format used on BDs/HD-DVDs
  161. Duration                                 : 1 h 52 min
  162. Bit rate                                 : 15.3 kb/s
  163. Count of elements                        : 2212
  164. Stream size                              : 12.4 MiB (0%)
  165. Title                                    : Chinese-PGS
  166. Language                                 : Chinese
  167. Default                                  : No
  168. Forced                                   : No

  169. Text #7
  170. ID                                       : 11
  171. Format                                   : PGS
  172. Muxing mode                              : zlib
  173. Codec ID                                 : S_HDMV/PGS
  174. Codec ID/Info                            : Picture based subtitle format used on BDs/HD-DVDs
  175. Duration                                 : 1 h 47 min
  176. Bit rate                                 : 22.7 kb/s
  177. Count of elements                        : 2460
  178. Stream size                              : 17.4 MiB (0%)
  179. Title                                    : Chinese-PGS
  180. Language                                 : Chinese
  181. Default                                  : No
  182. Forced                                   : No

  183. Text #8
  184. ID                                       : 12
  185. Format                                   : PGS
  186. Muxing mode                              : zlib
  187. Codec ID                                 : S_HDMV/PGS
  188. Codec ID/Info                            : Picture based subtitle format used on BDs/HD-DVDs
  189. Duration                                 : 1 h 52 min
  190. Bit rate                                 : 17.9 kb/s
  191. Count of elements                        : 2202
  192. Stream size                              : 14.4 MiB (0%)
  193. Title                                    : Chinese-PGS
  194. Language                                 : Chinese
  195. Default                                  : No
  196. Forced                                   : No

  197. Text #9
  198. ID                                       : 13
  199. Format                                   : PGS
  200. Muxing mode                              : zlib
  201. Codec ID                                 : S_HDMV/PGS
  202. Codec ID/Info                            : Picture based subtitle format used on BDs/HD-DVDs
  203. Duration                                 : 1 h 52 min
  204. Bit rate                                 : 19.2 kb/s
  205. Count of elements                        : 2202
  206. Stream size                              : 15.5 MiB (0%)
  207. Title                                    : Czech-PGS
  208. Language                                 : Czech
  209. Default                                  : No
  210. Forced                                   : No

  211. Text #10
  212. ID                                       : 14
  213. Format                                   : PGS
  214. Muxing mode                              : zlib
  215. Codec ID                                 : S_HDMV/PGS
  216. Codec ID/Info                            : Picture based subtitle format used on BDs/HD-DVDs
  217. Duration                                 : 1 h 52 min
  218. Bit rate                                 : 19.4 kb/s
  219. Count of elements                        : 1592
  220. Stream size                              : 15.6 MiB (0%)
  221. Title                                    : Danish-PGS
  222. Language                                 : Danish
  223. Default                                  : No
  224. Forced                                   : No

  225. Text #11
  226. ID                                       : 15
  227. Format                                   : PGS
  228. Muxing mode                              : zlib
  229. Codec ID                                 : S_HDMV/PGS
  230. Codec ID/Info                            : Picture based subtitle format used on BDs/HD-DVDs
  231. Duration                                 : 1 h 52 min
  232. Bit rate                                 : 19.4 kb/s
  233. Count of elements                        : 1514
  234. Stream size                              : 15.7 MiB (0%)
  235. Title                                    : Dutch-PGS
  236. Language                                 : Dutch
  237. Default                                  : No
  238. Forced                                   : No

  239. Text #12
  240. ID                                       : 16
  241. Format                                   : PGS
  242. Muxing mode                              : zlib
  243. Codec ID                                 : S_HDMV/PGS
  244. Codec ID/Info                            : Picture based subtitle format used on BDs/HD-DVDs
  245. Duration                                 : 1 h 52 min
  246. Bit rate                                 : 20.7 kb/s
  247. Count of elements                        : 2198
  248. Stream size                              : 16.7 MiB (0%)
  249. Title                                    : Finnish-PGS
  250. Language                                 : Finnish
  251. Default                                  : No
  252. Forced                                   : No

  253. Text #13
  254. ID                                       : 17
  255. Format                                   : PGS
  256. Muxing mode                              : zlib
  257. Codec ID                                 : S_HDMV/PGS
  258. Codec ID/Info                            : Picture based subtitle format used on BDs/HD-DVDs
  259. Duration                                 : 1 h 52 min
  260. Bit rate                                 : 18.7 kb/s
  261. Count of elements                        : 2016
  262. Stream size                              : 15.1 MiB (0%)
  263. Title                                    : French-PGS
  264. Language                                 : French
  265. Default                                  : No
  266. Forced                                   : No

  267. Text #14
  268. ID                                       : 18
  269. Format                                   : PGS
  270. Muxing mode                              : zlib
  271. Codec ID                                 : S_HDMV/PGS
  272. Codec ID/Info                            : Picture based subtitle format used on BDs/HD-DVDs
  273. Duration                                 : 1 h 52 min
  274. Bit rate                                 : 21.6 kb/s
  275. Count of elements                        : 2054
  276. Stream size                              : 17.4 MiB (0%)
  277. Title                                    : German-PGS
  278. Language                                 : German
  279. Default                                  : No
  280. Forced                                   : No

  281. Text #15
  282. ID                                       : 19
  283. Format                                   : PGS
  284. Muxing mode                              : zlib
  285. Codec ID                                 : S_HDMV/PGS
  286. Codec ID/Info                            : Picture based subtitle format used on BDs/HD-DVDs
  287. Duration                                 : 1 h 52 min
  288. Bit rate                                 : 21.8 kb/s
  289. Count of elements                        : 2042
  290. Stream size                              : 17.6 MiB (0%)
  291. Title                                    : Hungarian-PGS
  292. Language                                 : Hungarian
  293. Default                                  : No
  294. Forced                                   : No

  295. Text #16
  296. ID                                       : 20
  297. Format                                   : PGS
  298. Muxing mode                              : zlib
  299. Codec ID                                 : S_HDMV/PGS
  300. Codec ID/Info                            : Picture based subtitle format used on BDs/HD-DVDs
  301. Duration                                 : 1 h 52 min
  302. Bit rate                                 : 20.9 kb/s
  303. Count of elements                        : 2198
  304. Stream size                              : 16.9 MiB (0%)
  305. Title                                    : Italian-PGS
  306. Language                                 : Italian
  307. Default                                  : No
  308. Forced                                   : No

  309. Text #17
  310. ID                                       : 21
  311. Format                                   : PGS
  312. Muxing mode                              : zlib
  313. Codec ID                                 : S_HDMV/PGS
  314. Codec ID/Info                            : Picture based subtitle format used on BDs/HD-DVDs
  315. Duration                                 : 1 h 52 min
  316. Bit rate                                 : 16.5 kb/s
  317. Count of elements                        : 2210
  318. Stream size                              : 13.3 MiB (0%)
  319. Title                                    : Korean-PGS
  320. Language                                 : Korean
  321. Default                                  : No
  322. Forced                                   : No

  323. Text #18
  324. ID                                       : 22
  325. Format                                   : PGS
  326. Muxing mode                              : zlib
  327. Codec ID                                 : S_HDMV/PGS
  328. Codec ID/Info                            : Picture based subtitle format used on BDs/HD-DVDs
  329. Duration                                 : 1 h 52 min
  330. Bit rate                                 : 20.8 kb/s
  331. Count of elements                        : 2202
  332. Stream size                              : 16.8 MiB (0%)
  333. Title                                    : Norwegian-PGS
  334. Language                                 : Norwegian
  335. Default                                  : No
  336. Forced                                   : No

  337. Text #19
  338. ID                                       : 23
  339. Format                                   : PGS
  340. Muxing mode                              : zlib
  341. Codec ID                                 : S_HDMV/PGS
  342. Codec ID/Info                            : Picture based subtitle format used on BDs/HD-DVDs
  343. Duration                                 : 1 h 52 min
  344. Bit rate                                 : 19.4 kb/s
  345. Count of elements                        : 2146
  346. Stream size                              : 15.7 MiB (0%)
  347. Title                                    : Polish-PGS
  348. Language                                 : Polish
  349. Default                                  : No
  350. Forced                                   : No

  351. Text #20
  352. ID                                       : 24
  353. Format                                   : PGS
  354. Muxing mode                              : zlib
  355. Codec ID                                 : S_HDMV/PGS
  356. Codec ID/Info                            : Picture based subtitle format used on BDs/HD-DVDs
  357. Duration                                 : 1 h 52 min
  358. Bit rate                                 : 23.1 kb/s
  359. Count of elements                        : 2210
  360. Stream size                              : 18.6 MiB (0%)
  361. Title                                    : Portuguese-PGS
  362. Language                                 : Portuguese
  363. Default                                  : No
  364. Forced                                   : No

  365. Text #21
  366. ID                                       : 25
  367. Format                                   : PGS
  368. Muxing mode                              : zlib
  369. Codec ID                                 : S_HDMV/PGS
  370. Codec ID/Info                            : Picture based subtitle format used on BDs/HD-DVDs
  371. Duration                                 : 1 h 52 min
  372. Bit rate                                 : 21.7 kb/s
  373. Count of elements                        : 2200
  374. Stream size                              : 17.5 MiB (0%)
  375. Title                                    : Russian-PGS
  376. Language                                 : Russian
  377. Default                                  : No
  378. Forced                                   : No

  379. Text #22
  380. ID                                       : 26
  381. Format                                   : PGS
  382. Muxing mode                              : zlib
  383. Codec ID                                 : S_HDMV/PGS
  384. Codec ID/Info                            : Picture based subtitle format used on BDs/HD-DVDs
  385. Duration                                 : 1 h 52 min
  386. Bit rate                                 : 21.6 kb/s
  387. Count of elements                        : 2158
  388. Stream size                              : 17.4 MiB (0%)
  389. Title                                    : Spanish-PGS
  390. Language                                 : Spanish
  391. Default                                  : No
  392. Forced                                   : No

  393. Text #23
  394. ID                                       : 27
  395. Format                                   : PGS
  396. Muxing mode                              : zlib
  397. Codec ID                                 : S_HDMV/PGS
  398. Codec ID/Info                            : Picture based subtitle format used on BDs/HD-DVDs
  399. Duration                                 : 1 h 52 min
  400. Bit rate                                 : 21.3 kb/s
  401. Count of elements                        : 2116
  402. Stream size                              : 17.2 MiB (0%)
  403. Title                                    : Spanish-PGS
  404. Language                                 : Spanish
  405. Default                                  : No
  406. Forced                                   : No

  407. Text #24
  408. ID                                       : 28
  409. Format                                   : PGS
  410. Muxing mode                              : zlib
  411. Codec ID                                 : S_HDMV/PGS
  412. Codec ID/Info                            : Picture based subtitle format used on BDs/HD-DVDs
  413. Duration                                 : 1 h 52 min
  414. Bit rate                                 : 21.4 kb/s
  415. Count of elements                        : 2202
  416. Stream size                              : 17.3 MiB (0%)
  417. Title                                    : Swedish-PGS
  418. Language                                 : Swedish
  419. Default                                  : No
  420. Forced                                   : No

  421. Text #25
  422. ID                                       : 29
  423. Format                                   : PGS
  424. Muxing mode                              : zlib
  425. Codec ID                                 : S_HDMV/PGS
  426. Codec ID/Info                            : Picture based subtitle format used on BDs/HD-DVDs
  427. Duration                                 : 1 h 52 min
  428. Bit rate                                 : 18.9 kb/s
  429. Count of elements                        : 2204
  430. Stream size                              : 15.3 MiB (0%)
  431. Title                                    : Thai-PGS
  432. Language                                 : Thai
  433. Default                                  : No
  434. Forced                                   : No

  435. Menu
  436. 00:00:00.000                             : en:Chapter 01
  437. 00:03:28.541                             : en:Chapter 02
  438. 00:07:33.995                             : en:Chapter 03
  439. 00:11:41.867                             : en:Chapter 04
  440. 00:15:43.776                             : en:Chapter 05
  441. 00:18:37.074                             : en:Chapter 06
  442. 00:25:24.147                             : en:Chapter 07
  443. 00:31:40.023                             : en:Chapter 08
  444. 00:34:18.973                             : en:Chapter 09
  445. 00:40:07.113                             : en:Chapter 10
  446. 00:44:35.756                             : en:Chapter 11
  447. 00:49:07.319                             : en:Chapter 12
  448. 00:55:37.834                             : en:Chapter 13
  449. 00:58:57.075                             : en:Chapter 14
  450. 01:02:55.521                             : en:Chapter 15
  451. 01:10:39.777                             : en:Chapter 16
  452. 01:13:42.084                             : en:Chapter 17
  453. 01:19:32.893                             : en:Chapter 18
  454. 01:22:35.367                             : en:Chapter 19
  455. 01:25:48.351                             : en:Chapter 20
  456. 01:30:37.849                             : en:Chapter 21
  457. 01:32:47.603                             : en:Chapter 22
  458. 01:37:59.290                             : en:Chapter 23
  459. 01:45:00.711                             : en:Chapter 24
复制代码

X战警:黑凤凰 Dark.Phoenix.2019.2160p.BluRay.x265.10bit.SDR.DTS-HD.MA.TrueHD.7.1.Atmos-SWTYBLZ 25.92GB-2.png X战警:黑凤凰 Dark.Phoenix.2019.2160p.BluRay.x265.10bit.SDR.DTS-HD.MA.TrueHD.7.1.Atmos-SWTYBLZ 25.92GB-3.png X战警:黑凤凰 Dark.Phoenix.2019.2160p.BluRay.x265.10bit.SDR.DTS-HD.MA.TrueHD.7.1.Atmos-SWTYBLZ 25.92GB-4.png X战警:黑凤凰 Dark.Phoenix.2019.2160p.BluRay.x265.10bit.SDR.DTS-HD.MA.TrueHD.7.1.Atmos-SWTYBLZ 25.92GB-5.png X战警:黑凤凰 Dark.Phoenix.2019.2160p.BluRay.x265.10bit.SDR.DTS-HD.MA.TrueHD.7.1.Atmos-SWTYBLZ 25.92GB-6.png X战警:黑凤凰 Dark.Phoenix.2019.2160p.BluRay.x265.10bit.SDR.DTS-HD.MA.TrueHD.7.1.Atmos-SWTYBLZ 25.92GB-7.png X战警:黑凤凰 Dark.Phoenix.2019.2160p.BluRay.x265.10bit.SDR.DTS-HD.MA.TrueHD.7.1.Atmos-SWTYBLZ 25.92GB-8.png






开通VIP免费下载本站所有资源---点这里
新手必看:资源下载、资源播放、字幕使用、等常见问题---点这里
回复

使用道具 举报

发表于 7 天前 | 显示全部楼层
dddddddddddddddddddddddddddd
开通VIP免费下载本站所有资源---点这里
新手必看:资源下载、资源播放、字幕使用、等常见问题---点这里
回复 支持 反对

使用道具 举报

发表于 6 天前 | 显示全部楼层

这东西我收了!谢谢楼主!蓝光电影网真好!
开通VIP免费下载本站所有资源---点这里
新手必看:资源下载、资源播放、字幕使用、等常见问题---点这里
回复 支持 反对

使用道具 举报

发表于 5 天前 | 显示全部楼层

我看不错噢 谢谢楼主!蓝光电影网越来越好!
开通VIP免费下载本站所有资源---点这里
新手必看:资源下载、资源播放、字幕使用、等常见问题---点这里
回复 支持 反对

使用道具 举报

懒得打字嘛,点击右侧快捷回复 【右侧内容,后台自定义】
您需要登录后才可以回帖 登录 | 立即加入

本版积分规则

现在加入蓝光电影网,注册一个账号

QQ| 手机版|小黑屋| 蓝光电影网 |网站地图

Copyright © 2015-2019 Comsenz Inc.  Template by 蓝光电影网 All Rights Reserved.

Powered by 蓝光电影网 X3.4

特别声明:本站所有资源均由网上收集而来,版权归原影音公司所有,如果侵犯了你的权益,请通知我们,我们会及时删除侵权内容.

快速回复 返回顶部 返回列表