找回密码

蓝光电影网

查看: 126|回复: 1

[REMUX.HEVC] X战警:黑凤凰 Dark.Phoenix.2019.2160p.BluRay.REMUX.HEVC.DTS-HD.MA.TrueHD.7.1.Atmos-FGT 53.25GB

[复制链接]

 成长值: 1345

发表于 7 天前 | 显示全部楼层 |阅读模式
X战警:黑凤凰 Dark.Phoenix.2019.2160p.BluRay.REMUX.HEVC.DTS-HD.MA.TrueHD.7.1.Atmos-FGT 53.25GB-1.png

译  名 X战警:黑凤凰 / X-Men: Dark Phoenix / X-Men: Supernova / X战警7 / X战警前传4 / X战警:超新星 / X战警:黑凤凰传奇 / 变种特攻:黑凤凰(港)
片  名 Dark Phoenix
年  代 2019
产  地 美国
类  别 动作 / 科幻 / 冒险
语  言 英语
上映日期 2019-06-06(中国大陆) / 2019-06-07(美国)
IMDb评分  6.0/10 from 55231 users
IMDb链接  http://www.imdb.com/title/tt6565702
豆瓣评分 6.0/10 from 114886 users
豆瓣链接 https://movie.douban.com/subject/26667010/
片  长 114分钟
导  演 西蒙·金伯格 Simon Kinberg
编  剧 西蒙·金伯格 Simon Kinberg / 约翰·拜恩 John Byrne / 克里斯·克雷蒙 Chris Claremont / 戴夫·科克勒姆 Dave Cockrum / 杰克·科比 Jack Kirby / 斯坦·李 Stan Lee
主  演 苏菲·特纳 Sophie Turner
       詹姆斯·麦卡沃伊 James McAvoy
       迈克尔·法斯宾德 Michael Fassbender
       尼古拉斯·霍尔特 Nicholas Hoult
       泰伊·谢里丹 Tye Sheridan
       杰西卡·查斯坦 Jessica Chastain
       詹妮弗·劳伦斯 Jennifer Lawrence
       柯蒂·斯密特-麦菲 Kodi Smit-McPhee
       亚历山德拉·希普 Alexandra Shipp
       埃文·彼得斯 Evan Peters
       丹尼尔·库德摩尔 Daniel Cudmore
       奥托·艾森度 Ato Essandoh
       伊万·乔尼凯特 Evan Jonigkeit
       莎莫·芳塔娜 Summer Fontana
       斯科特· 谢泼德 Scott Shepherd
       拉马尔·约翰逊 Lamar Johnson
       泰勒·艾略特·伯克 Tyler Elliot Burke
       安德鲁·斯特林 Andrew Stehlin
       朱利安·拜利 Julian Bailey
       Maurizio Terrazzano
       Josh McLaglen
       格雷格·洛 Gregg Lowe
       塞巴斯蒂安·麦克莱恩 Sebastian MacLean
       沙维尔·索特洛 Xavier Sotelo
       Karen Ivany
       奥利维耶·拉玛舒 Olivier Lamarche
       西蒙·阿兰 Simon Alain
       Alexandre Bélanger


标  签 X战警 | 漫威 | 科幻 | 美国 | 超级英雄 | 2019 | 漫画改编 | 动作

简  介  

  影片剧情围绕X战警中最受欢迎成员之一的琴·葛蕾展开,讲述她逐渐转化为黑凤凰的故事。在一次危及生命的太空营救行动中,琴被神秘的宇宙力量击中,成为最强大的变种人。此后琴·葛蕾不仅要设法掌控日益增长、极不稳定的力量,更要与自己内心的恶魔抗争,她的失控让整个X战警大家庭分崩离析,也让整个星球陷入毁灭的威胁之中。《X战警:黑凤凰》是迄今为止气氛最紧张、情感最丰富的一部《X战警》电影,是《X战警》系列20年来的集大成之作,大家非常熟悉和热爱的变种人大家庭即将面对最为强大的敌人——而她恰恰还是他们中的一员。

获奖情况  

  第5届豆瓣电影年度榜单(2018)
  最值得期待的外语电影(提名)
  1. Video
  2. ID                                       : 1
  3. Format                                   : HEVC
  4. Format/Info                              : High Efficiency Video Coding
  5. Format profile                           : Main <a href="/cdn-cgi/l/email-protection" class="__cf_email__" data-cfemail="08393848443d2639">[email protected]</a>@High
  6. HDR format                               : SMPTE ST 2094 App 4, Version 1, HDR10+ Profile A compatible
  7. Codec ID                                 : V_MPEGH/ISO/HEVC
  8. Duration                                 : 1 h 53 min
  9. Bit rate                                 : 49.7 Mb/s
  10. Width                                    : 3 840 pixels
  11. Height                                   : 2 160 pixels
  12. Display aspect ratio                     : 16:9
  13. Frame rate mode                          : Constant
  14. Frame rate                               : 23.976 (24000/1001) FPS
  15. Color space                              : YUV
  16. Chroma subsampling                       : 4:2:0 (Type 2)
  17. Bit depth                                : 10 bits
  18. Bits/(Pixel*Frame)                       : 0.250
  19. Stream size                              : 39.6 GiB (74%)
  20. Title                                    : Dark.Phoenix.2019.2160p.BluRay.REMUX.HEVC.DTS-HD.MA.TrueHD.7.1.Atmos-FGT
  21. Writing library                          : ATEME Titan File 3.9.0 (4.9.0.0)        
  22. Language                                 : English
  23. Default                                  : No
  24. Forced                                   : No
  25. Color range                              : Limited
  26. Color primaries                          : BT.2020
  27. Transfer characteristics                 : PQ
  28. Matrix coefficients                      : BT.2020 non-constant
  29. Mastering display color primaries        : Display P3
  30. Mastering display luminance              : min: 0.0050 cd/m2, max: 1000 cd/m2

  31. Audio #1
  32. ID                                       : 2
  33. Format                                   : MLP FBA 16-ch
  34. Format/Info                              : Meridian Lossless Packing FBA with 16-channel presentation
  35. Commercial name                          : Dolby TrueHD with Dolby Atmos
  36. Codec ID                                 : A_TRUEHD
  37. Duration                                 : 1 h 53 min
  38. Bit rate mode                            : Variable
  39. Bit rate                                 : 4 775 kb/s
  40. Maximum bit rate                         : 7 464 kb/s
  41. Channel(s)                               : 8 channels
  42. Channel layout                           : L R C LFE Ls Rs Lb Rb
  43. Sampling rate                            : 48.0 kHz
  44. Frame rate                               : 1 200.000 FPS (40 SPF)
  45. Compression mode                         : Lossless
  46. Stream size                              : 3.80 GiB (7%)
  47. Title                                    : Dark.Phoenix.2019.2160p.BluRay.REMUX.HEVC.DTS-HD.MA.TrueHD.7.1.Atmos-FGT
  48. Language                                 : English
  49. Default                                  : Yes
  50. Forced                                   : No
  51. Number of dynamic objects                : 13
  52. Bed channel count                        : 1 channel
  53. Bed channel configuration                : LFE

  54. Audio #2
  55. ID                                       : 3
  56. Format                                   : DTS XLL
  57. Format/Info                              : Digital Theater Systems
  58. Commercial name                          : DTS-HD Master Audio
  59. Codec ID                                 : A_DTS
  60. Duration                                 : 1 h 53 min
  61. Bit rate mode                            : Variable
  62. Bit rate                                 : 4 163 kb/s
  63. Channel(s)                               : 8 channels
  64. Channel layout                           : C L R LFE Lb Rb Lss Rss
  65. Sampling rate                            : 48.0 kHz
  66. Frame rate                               : 93.750 FPS (512 SPF)
  67. Bit depth                                : 24 bits
  68. Compression mode                         : Lossless
  69. Stream size                              : 3.31 GiB (6%)
  70. Title                                    : Dark.Phoenix.2019.2160p.BluRay.REMUX.HEVC.DTS-HD.MA.TrueHD.7.1.Atmos-FGT
  71. Language                                 : English
  72. Default                                  : No
  73. Forced                                   : No

  74. Audio #3
  75. ID                                       : 4
  76. Format                                   : AC-3
  77. Format/Info                              : Audio Coding 3
  78. Commercial name                          : Dolby Digital
  79. Codec ID                                 : A_AC3
  80. Duration                                 : 1 h 53 min
  81. Bit rate mode                            : Constant
  82. Bit rate                                 : 640 kb/s
  83. Channel(s)                               : 6 channels
  84. Channel layout                           : L R C LFE Ls Rs
  85. Sampling rate                            : 48.0 kHz
  86. Frame rate                               : 31.250 FPS (1536 SPF)
  87. Bit depth                                : 16 bits
  88. Compression mode                         : Lossy
  89. Stream size                              : 522 MiB (1%)
  90. Title                                    : Dark.Phoenix.2019.2160p.BluRay.REMUX.HEVC.DTS-HD.MA.TrueHD.7.1.Atmos-FGT
  91. Language                                 : English
  92. Service kind                             : Complete Main
  93. Default                                  : No
  94. Forced                                   : No

  95. Audio #4
  96. ID                                       : 5
  97. Format                                   : AC-3
  98. Format/Info                              : Audio Coding 3
  99. Commercial name                          : Dolby Digital
  100. Codec ID                                 : A_AC3
  101. Duration                                 : 1 h 53 min
  102. Bit rate mode                            : Constant
  103. Bit rate                                 : 448 kb/s
  104. Channel(s)                               : 6 channels
  105. Channel layout                           : L R C LFE Ls Rs
  106. Sampling rate                            : 48.0 kHz
  107. Frame rate                               : 31.250 FPS (1536 SPF)
  108. Bit depth                                : 16 bits
  109. Compression mode                         : Lossy
  110. Stream size                              : 365 MiB (1%)
  111. Title                                    : Dark.Phoenix.2019.2160p.BluRay.REMUX.HEVC.DTS-HD.MA.TrueHD.7.1.Atmos-FGT
  112. Language                                 : English
  113. Service kind                             : Complete Main
  114. Default                                  : No
  115. Forced                                   : No

  116. Audio #5
  117. ID                                       : 6
  118. Format                                   : AC-3
  119. Format/Info                              : Audio Coding 3
  120. Commercial name                          : Dolby Digital
  121. Codec ID                                 : A_AC3
  122. Duration                                 : 1 h 53 min
  123. Bit rate mode                            : Constant
  124. Bit rate                                 : 448 kb/s
  125. Channel(s)                               : 6 channels
  126. Channel layout                           : L R C LFE Ls Rs
  127. Sampling rate                            : 48.0 kHz
  128. Frame rate                               : 31.250 FPS (1536 SPF)
  129. Bit depth                                : 16 bits
  130. Compression mode                         : Lossy
  131. Stream size                              : 365 MiB (1%)
  132. Title                                    : Dark.Phoenix.2019.2160p.BluRay.REMUX.HEVC.DTS-HD.MA.TrueHD.7.1.Atmos-FGT
  133. Language                                 : Spanish
  134. Service kind                             : Complete Main
  135. Default                                  : No
  136. Forced                                   : No

  137. Audio #6
  138. ID                                       : 7
  139. Format                                   : DTS
  140. Format/Info                              : Digital Theater Systems
  141. Codec ID                                 : A_DTS
  142. Duration                                 : 1 h 53 min
  143. Bit rate mode                            : Constant
  144. Bit rate                                 : 768 kb/s
  145. Channel(s)                               : 6 channels
  146. Channel layout                           : C L R Ls Rs LFE
  147. Sampling rate                            : 48.0 kHz
  148. Frame rate                               : 93.750 FPS (512 SPF)
  149. Bit depth                                : 24 bits
  150. Compression mode                         : Lossy
  151. Stream size                              : 626 MiB (1%)
  152. Title                                    : Dark.Phoenix.2019.2160p.BluRay.REMUX.HEVC.DTS-HD.MA.TrueHD.7.1.Atmos-FGT
  153. Language                                 : French
  154. Default                                  : No
  155. Forced                                   : No

  156. Audio #7
  157. ID                                       : 8
  158. Format                                   : DTS
  159. Format/Info                              : Digital Theater Systems
  160. Codec ID                                 : A_DTS
  161. Duration                                 : 1 h 53 min
  162. Bit rate mode                            : Constant
  163. Bit rate                                 : 768 kb/s
  164. Channel(s)                               : 6 channels
  165. Channel layout                           : C L R Ls Rs LFE
  166. Sampling rate                            : 48.0 kHz
  167. Frame rate                               : 93.750 FPS (512 SPF)
  168. Bit depth                                : 24 bits
  169. Compression mode                         : Lossy
  170. Stream size                              : 626 MiB (1%)
  171. Title                                    : Dark.Phoenix.2019.2160p.BluRay.REMUX.HEVC.DTS-HD.MA.TrueHD.7.1.Atmos-FGT
  172. Language                                 : Spanish
  173. Default                                  : No
  174. Forced                                   : No

  175. Audio #8
  176. ID                                       : 9
  177. Format                                   : DTS
  178. Format/Info                              : Digital Theater Systems
  179. Codec ID                                 : A_DTS
  180. Duration                                 : 1 h 53 min
  181. Bit rate mode                            : Constant
  182. Bit rate                                 : 768 kb/s
  183. Channel(s)                               : 6 channels
  184. Channel layout                           : C L R Ls Rs LFE
  185. Sampling rate                            : 48.0 kHz
  186. Frame rate                               : 93.750 FPS (512 SPF)
  187. Bit depth                                : 24 bits
  188. Compression mode                         : Lossy
  189. Stream size                              : 626 MiB (1%)
  190. Title                                    : Dark.Phoenix.2019.2160p.BluRay.REMUX.HEVC.DTS-HD.MA.TrueHD.7.1.Atmos-FGT
  191. Language                                 : German
  192. Default                                  : No
  193. Forced                                   : No

  194. Audio #9
  195. ID                                       : 10
  196. Format                                   : DTS
  197. Format/Info                              : Digital Theater Systems
  198. Codec ID                                 : A_DTS
  199. Duration                                 : 1 h 53 min
  200. Bit rate mode                            : Constant
  201. Bit rate                                 : 768 kb/s
  202. Channel(s)                               : 6 channels
  203. Channel layout                           : C L R Ls Rs LFE
  204. Sampling rate                            : 48.0 kHz
  205. Frame rate                               : 93.750 FPS (512 SPF)
  206. Bit depth                                : 24 bits
  207. Compression mode                         : Lossy
  208. Stream size                              : 626 MiB (1%)
  209. Title                                    : Dark.Phoenix.2019.2160p.BluRay.REMUX.HEVC.DTS-HD.MA.TrueHD.7.1.Atmos-FGT
  210. Language                                 : Italian
  211. Default                                  : No
  212. Forced                                   : No

  213. Audio #10
  214. ID                                       : 11
  215. Format                                   : DTS
  216. Format/Info                              : Digital Theater Systems
  217. Codec ID                                 : A_DTS
  218. Duration                                 : 1 h 53 min
  219. Bit rate mode                            : Constant
  220. Bit rate                                 : 768 kb/s
  221. Channel(s)                               : 6 channels
  222. Channel layout                           : C L R Ls Rs LFE
  223. Sampling rate                            : 48.0 kHz
  224. Frame rate                               : 93.750 FPS (512 SPF)
  225. Bit depth                                : 24 bits
  226. Compression mode                         : Lossy
  227. Stream size                              : 626 MiB (1%)
  228. Title                                    : Dark.Phoenix.2019.2160p.BluRay.REMUX.HEVC.DTS-HD.MA.TrueHD.7.1.Atmos-FGT
  229. Language                                 : Russian
  230. Default                                  : No
  231. Forced                                   : No

  232. Audio #11
  233. ID                                       : 12
  234. Format                                   : AC-3
  235. Format/Info                              : Audio Coding 3
  236. Commercial name                          : Dolby Digital
  237. Codec ID                                 : A_AC3
  238. Duration                                 : 1 h 53 min
  239. Bit rate mode                            : Constant
  240. Bit rate                                 : 448 kb/s
  241. Channel(s)                               : 6 channels
  242. Channel layout                           : L R C LFE Ls Rs
  243. Sampling rate                            : 48.0 kHz
  244. Frame rate                               : 31.250 FPS (1536 SPF)
  245. Bit depth                                : 16 bits
  246. Compression mode                         : Lossy
  247. Stream size                              : 365 MiB (1%)
  248. Title                                    : Dark.Phoenix.2019.2160p.BluRay.REMUX.HEVC.DTS-HD.MA.TrueHD.7.1.Atmos-FGT
  249. Language                                 : Czech
  250. Service kind                             : Complete Main
  251. Default                                  : No
  252. Forced                                   : No

  253. Audio #12
  254. ID                                       : 13
  255. Format                                   : AC-3
  256. Format/Info                              : Audio Coding 3
  257. Commercial name                          : Dolby Digital
  258. Codec ID                                 : A_AC3
  259. Duration                                 : 1 h 53 min
  260. Bit rate mode                            : Constant
  261. Bit rate                                 : 448 kb/s
  262. Channel(s)                               : 6 channels
  263. Channel layout                           : L R C LFE Ls Rs
  264. Sampling rate                            : 48.0 kHz
  265. Frame rate                               : 31.250 FPS (1536 SPF)
  266. Bit depth                                : 16 bits
  267. Compression mode                         : Lossy
  268. Stream size                              : 365 MiB (1%)
  269. Title                                    : Dark.Phoenix.2019.2160p.BluRay.REMUX.HEVC.DTS-HD.MA.TrueHD.7.1.Atmos-FGT
  270. Language                                 : Hungarian
  271. Service kind                             : Complete Main
  272. Default                                  : No
  273. Forced                                   : No

  274. Audio #13
  275. ID                                       : 14
  276. Format                                   : AC-3
  277. Format/Info                              : Audio Coding 3
  278. Commercial name                          : Dolby Digital
  279. Codec ID                                 : A_AC3
  280. Duration                                 : 1 h 53 min
  281. Bit rate mode                            : Constant
  282. Bit rate                                 : 448 kb/s
  283. Channel(s)                               : 6 channels
  284. Channel layout                           : L R C LFE Ls Rs
  285. Sampling rate                            : 48.0 kHz
  286. Frame rate                               : 31.250 FPS (1536 SPF)
  287. Bit depth                                : 16 bits
  288. Compression mode                         : Lossy
  289. Stream size                              : 365 MiB (1%)
  290. Title                                    : Dark.Phoenix.2019.2160p.BluRay.REMUX.HEVC.DTS-HD.MA.TrueHD.7.1.Atmos-FGT
  291. Language                                 : Chinese
  292. Service kind                             : Complete Main
  293. Default                                  : No
  294. Forced                                   : No

  295. Audio #14
  296. ID                                       : 15
  297. Format                                   : AC-3
  298. Format/Info                              : Audio Coding 3
  299. Commercial name                          : Dolby Digital
  300. Codec ID                                 : A_AC3
  301. Duration                                 : 1 h 53 min
  302. Bit rate mode                            : Constant
  303. Bit rate                                 : 448 kb/s
  304. Channel(s)                               : 6 channels
  305. Channel layout                           : L R C LFE Ls Rs
  306. Sampling rate                            : 48.0 kHz
  307. Frame rate                               : 31.250 FPS (1536 SPF)
  308. Bit depth                                : 16 bits
  309. Compression mode                         : Lossy
  310. Stream size                              : 365 MiB (1%)
  311. Title                                    : Dark.Phoenix.2019.2160p.BluRay.REMUX.HEVC.DTS-HD.MA.TrueHD.7.1.Atmos-FGT
  312. Language                                 : Polish
  313. Service kind                             : Complete Main
  314. Default                                  : No
  315. Forced                                   : No

  316. Audio #15
  317. ID                                       : 16
  318. Format                                   : AC-3
  319. Format/Info                              : Audio Coding 3
  320. Commercial name                          : Dolby Digital
  321. Codec ID                                 : A_AC3
  322. Duration                                 : 1 h 53 min
  323. Bit rate mode                            : Constant
  324. Bit rate                                 : 448 kb/s
  325. Channel(s)                               : 6 channels
  326. Channel layout                           : L R C LFE Ls Rs
  327. Sampling rate                            : 48.0 kHz
  328. Frame rate                               : 31.250 FPS (1536 SPF)
  329. Bit depth                                : 16 bits
  330. Compression mode                         : Lossy
  331. Stream size                              : 365 MiB (1%)
  332. Title                                    : Dark.Phoenix.2019.2160p.BluRay.REMUX.HEVC.DTS-HD.MA.TrueHD.7.1.Atmos-FGT
  333. Language                                 : Thai
  334. Service kind                             : Complete Main
  335. Default                                  : No
  336. Forced                                   : No

  337. Audio #16
  338. ID                                       : 17
  339. Format                                   : AC-3
  340. Format/Info                              : Audio Coding 3
  341. Commercial name                          : Dolby Digital
  342. Codec ID                                 : A_AC3
  343. Duration                                 : 1 h 53 min
  344. Bit rate mode                            : Constant
  345. Bit rate                                 : 224 kb/s
  346. Channel(s)                               : 2 channels
  347. Channel layout                           : L R
  348. Sampling rate                            : 48.0 kHz
  349. Frame rate                               : 31.250 FPS (1536 SPF)
  350. Bit depth                                : 16 bits
  351. Compression mode                         : Lossy
  352. Stream size                              : 183 MiB (0%)
  353. Title                                    : Dark.Phoenix.2019.2160p.BluRay.REMUX.HEVC.DTS-HD.MA.TrueHD.7.1.Atmos-FGT
  354. Language                                 : English
  355. Service kind                             : Complete Main
  356. Default                                  : No
  357. Forced                                   : No

  358. Text #1
  359. ID                                       : 18
  360. Format                                   : UTF-8
  361. Codec ID                                 : S_TEXT/UTF8
  362. Codec ID/Info                            : UTF-8 Plain Text
  363. Duration                                 : 31 min 20 s
  364. Bit rate                                 : 0 b/s
  365. Count of elements                        : 4
  366. Stream size                              : 169 Bytes (0%)
  367. Title                                    : English-FORCED-SRT
  368. Language                                 : English
  369. Default                                  : Yes
  370. Forced                                   : Yes

  371. Text #2
  372. ID                                       : 19
  373. Format                                   : UTF-8
  374. Codec ID                                 : S_TEXT/UTF8
  375. Codec ID/Info                            : UTF-8 Plain Text
  376. Duration                                 : 1 h 53 min
  377. Bit rate                                 : 38 b/s
  378. Count of elements                        : 1180
  379. Stream size                              : 31.6 KiB (0%)
  380. Title                                    : English-SRT
  381. Language                                 : English
  382. Default                                  : No
  383. Forced                                   : No

  384. Text #3
  385. ID                                       : 20
  386. Format                                   : UTF-8
  387. Codec ID                                 : S_TEXT/UTF8
  388. Codec ID/Info                            : UTF-8 Plain Text
  389. Duration                                 : 1 h 53 min
  390. Bit rate                                 : 43 b/s
  391. Count of elements                        : 1411
  392. Stream size                              : 36.0 KiB (0%)
  393. Title                                    : English-SDH-SRT
  394. Language                                 : English
  395. Default                                  : No
  396. Forced                                   : No

  397. Text #4
  398. ID                                       : 21
  399. Format                                   : PGS
  400. Muxing mode                              : zlib
  401. Codec ID                                 : S_HDMV/PGS
  402. Codec ID/Info                            : Picture based subtitle format used on BDs/HD-DVDs
  403. Duration                                 : 1 h 53 min
  404. Bit rate                                 : 28.1 kb/s
  405. Count of elements                        : 2830
  406. Stream size                              : 22.9 MiB (0%)
  407. Title                                    : English-PGS
  408. Language                                 : English
  409. Default                                  : No
  410. Forced                                   : No

  411. Text #5
  412. ID                                       : 22
  413. Format                                   : PGS
  414. Muxing mode                              : zlib
  415. Codec ID                                 : S_HDMV/PGS
  416. Codec ID/Info                            : Picture based subtitle format used on BDs/HD-DVDs
  417. Duration                                 : 1 h 52 min
  418. Bit rate                                 : 21.3 kb/s
  419. Count of elements                        : 2116
  420. Stream size                              : 17.2 MiB (0%)
  421. Title                                    : Spanish-PGS
  422. Language                                 : Spanish
  423. Default                                  : No
  424. Forced                                   : No

  425. Text #6
  426. ID                                       : 23
  427. Format                                   : PGS
  428. Muxing mode                              : zlib
  429. Codec ID                                 : S_HDMV/PGS
  430. Codec ID/Info                            : Picture based subtitle format used on BDs/HD-DVDs
  431. Duration                                 : 1 h 19 min
  432. Bit rate                                 : 231 b/s
  433. Count of elements                        : 12
  434. Stream size                              : 135 KiB (0%)
  435. Title                                    : Spanish-FORCED-PGS
  436. Language                                 : Spanish
  437. Default                                  : No
  438. Forced                                   : No

  439. Text #7
  440. ID                                       : 24
  441. Format                                   : PGS
  442. Muxing mode                              : zlib
  443. Codec ID                                 : S_HDMV/PGS
  444. Codec ID/Info                            : Picture based subtitle format used on BDs/HD-DVDs
  445. Duration                                 : 1 h 52 min
  446. Bit rate                                 : 18.7 kb/s
  447. Count of elements                        : 2016
  448. Stream size                              : 15.1 MiB (0%)
  449. Title                                    : French-PGS
  450. Language                                 : French
  451. Default                                  : No
  452. Forced                                   : No

  453. Text #8
  454. ID                                       : 25
  455. Format                                   : PGS
  456. Muxing mode                              : zlib
  457. Codec ID                                 : S_HDMV/PGS
  458. Codec ID/Info                            : Picture based subtitle format used on BDs/HD-DVDs
  459. Duration                                 : 1 h 19 min
  460. Bit rate                                 : 259 b/s
  461. Count of elements                        : 14
  462. Stream size                              : 151 KiB (0%)
  463. Title                                    : French-FORCED-PGS
  464. Language                                 : French
  465. Default                                  : No
  466. Forced                                   : No

  467. Text #9
  468. ID                                       : 26
  469. Format                                   : PGS
  470. Muxing mode                              : zlib
  471. Codec ID                                 : S_HDMV/PGS
  472. Codec ID/Info                            : Picture based subtitle format used on BDs/HD-DVDs
  473. Duration                                 : 1 h 52 min
  474. Bit rate                                 : 21.6 kb/s
  475. Count of elements                        : 2158
  476. Stream size                              : 17.4 MiB (0%)
  477. Title                                    : Spanish-PGS
  478. Language                                 : Spanish
  479. Default                                  : No
  480. Forced                                   : No

  481. Text #10
  482. ID                                       : 27
  483. Format                                   : PGS
  484. Muxing mode                              : zlib
  485. Codec ID                                 : S_HDMV/PGS
  486. Codec ID/Info                            : Picture based subtitle format used on BDs/HD-DVDs
  487. Duration                                 : 1 h 46 min
  488. Bit rate                                 : 227 b/s
  489. Count of elements                        : 18
  490. Stream size                              : 177 KiB (0%)
  491. Title                                    : Spanish-FORCED-PGS
  492. Language                                 : Spanish
  493. Default                                  : No
  494. Forced                                   : No

  495. Text #11
  496. ID                                       : 28
  497. Format                                   : PGS
  498. Muxing mode                              : zlib
  499. Codec ID                                 : S_HDMV/PGS
  500. Codec ID/Info                            : Picture based subtitle format used on BDs/HD-DVDs
  501. Duration                                 : 1 h 52 min
  502. Bit rate                                 : 19.4 kb/s
  503. Count of elements                        : 1592
  504. Stream size                              : 15.6 MiB (0%)
  505. Title                                    : Danish-PGS
  506. Language                                 : Danish
  507. Default                                  : No
  508. Forced                                   : No

  509. Text #12
  510. ID                                       : 29
  511. Format                                   : PGS
  512. Muxing mode                              : zlib
  513. Codec ID                                 : S_HDMV/PGS
  514. Codec ID/Info                            : Picture based subtitle format used on BDs/HD-DVDs
  515. Duration                                 : 1 h 52 min
  516. Bit rate                                 : 19.4 kb/s
  517. Count of elements                        : 1514
  518. Stream size                              : 15.7 MiB (0%)
  519. Title                                    : Dutch-PGS
  520. Language                                 : Dutch
  521. Default                                  : No
  522. Forced                                   : No

  523. Text #13
  524. ID                                       : 30
  525. Format                                   : PGS
  526. Muxing mode                              : zlib
  527. Codec ID                                 : S_HDMV/PGS
  528. Codec ID/Info                            : Picture based subtitle format used on BDs/HD-DVDs
  529. Duration                                 : 1 h 52 min
  530. Bit rate                                 : 20.7 kb/s
  531. Count of elements                        : 2198
  532. Stream size                              : 16.7 MiB (0%)
  533. Title                                    : Finnish-PGS
  534. Language                                 : Finnish
  535. Default                                  : No
  536. Forced                                   : No

  537. Text #14
  538. ID                                       : 31
  539. Format                                   : PGS
  540. Muxing mode                              : zlib
  541. Codec ID                                 : S_HDMV/PGS
  542. Codec ID/Info                            : Picture based subtitle format used on BDs/HD-DVDs
  543. Duration                                 : 1 h 52 min
  544. Bit rate                                 : 21.6 kb/s
  545. Count of elements                        : 2054
  546. Stream size                              : 17.4 MiB (0%)
  547. Title                                    : German-PGS
  548. Language                                 : German
  549. Default                                  : No
  550. Forced                                   : No

  551. Text #15
  552. ID                                       : 32
  553. Format                                   : PGS
  554. Muxing mode                              : zlib
  555. Codec ID                                 : S_HDMV/PGS
  556. Codec ID/Info                            : Picture based subtitle format used on BDs/HD-DVDs
  557. Duration                                 : 1 h 19 min
  558. Bit rate                                 : 240 b/s
  559. Count of elements                        : 12
  560. Stream size                              : 140 KiB (0%)
  561. Title                                    : German-FORCED-PGS
  562. Language                                 : German
  563. Default                                  : No
  564. Forced                                   : No

  565. Text #16
  566. ID                                       : 33
  567. Format                                   : PGS
  568. Muxing mode                              : zlib
  569. Codec ID                                 : S_HDMV/PGS
  570. Codec ID/Info                            : Picture based subtitle format used on BDs/HD-DVDs
  571. Duration                                 : 1 h 52 min
  572. Bit rate                                 : 20.9 kb/s
  573. Count of elements                        : 2198
  574. Stream size                              : 16.9 MiB (0%)
  575. Title                                    : Italian-PGS
  576. Language                                 : Italian
  577. Default                                  : No
  578. Forced                                   : No

  579. Text #17
  580. ID                                       : 34
  581. Format                                   : PGS
  582. Muxing mode                              : zlib
  583. Codec ID                                 : S_HDMV/PGS
  584. Codec ID/Info                            : Picture based subtitle format used on BDs/HD-DVDs
  585. Duration                                 : 1 h 19 min
  586. Bit rate                                 : 226 b/s
  587. Count of elements                        : 16
  588. Stream size                              : 132 KiB (0%)
  589. Title                                    : Italian-FORCED-PGS
  590. Language                                 : Italian
  591. Default                                  : No
  592. Forced                                   : No

  593. Text #18
  594. ID                                       : 35
  595. Format                                   : PGS
  596. Muxing mode                              : zlib
  597. Codec ID                                 : S_HDMV/PGS
  598. Codec ID/Info                            : Picture based subtitle format used on BDs/HD-DVDs
  599. Duration                                 : 1 h 52 min
  600. Bit rate                                 : 20.8 kb/s
  601. Count of elements                        : 2202
  602. Stream size                              : 16.8 MiB (0%)
  603. Title                                    : Norwegian-PGS
  604. Language                                 : Norwegian
  605. Default                                  : No
  606. Forced                                   : No

  607. Text #19
  608. ID                                       : 36
  609. Format                                   : PGS
  610. Muxing mode                              : zlib
  611. Codec ID                                 : S_HDMV/PGS
  612. Codec ID/Info                            : Picture based subtitle format used on BDs/HD-DVDs
  613. Duration                                 : 1 h 52 min
  614. Bit rate                                 : 21.7 kb/s
  615. Count of elements                        : 2200
  616. Stream size                              : 17.5 MiB (0%)
  617. Title                                    : Russian-PGS
  618. Language                                 : Russian
  619. Default                                  : No
  620. Forced                                   : No

  621. Text #20
  622. ID                                       : 37
  623. Format                                   : PGS
  624. Muxing mode                              : zlib
  625. Codec ID                                 : S_HDMV/PGS
  626. Codec ID/Info                            : Picture based subtitle format used on BDs/HD-DVDs
  627. Duration                                 : 1 h 46 min
  628. Bit rate                                 : 239 b/s
  629. Count of elements                        : 20
  630. Stream size                              : 187 KiB (0%)
  631. Title                                    : Russian-FORCED-PGS
  632. Language                                 : Russian
  633. Default                                  : No
  634. Forced                                   : No

  635. Text #21
  636. ID                                       : 38
  637. Format                                   : PGS
  638. Muxing mode                              : zlib
  639. Codec ID                                 : S_HDMV/PGS
  640. Codec ID/Info                            : Picture based subtitle format used on BDs/HD-DVDs
  641. Duration                                 : 1 h 52 min
  642. Bit rate                                 : 21.4 kb/s
  643. Count of elements                        : 2202
  644. Stream size                              : 17.3 MiB (0%)
  645. Title                                    : Swedish-PGS
  646. Language                                 : Swedish
  647. Default                                  : No
  648. Forced                                   : No

  649. Text #22
  650. ID                                       : 39
  651. Format                                   : PGS
  652. Muxing mode                              : zlib
  653. Codec ID                                 : S_HDMV/PGS
  654. Codec ID/Info                            : Picture based subtitle format used on BDs/HD-DVDs
  655. Duration                                 : 1 h 52 min
  656. Bit rate                                 : 15.3 kb/s
  657. Count of elements                        : 2212
  658. Stream size                              : 12.4 MiB (0%)
  659. Title                                    : Chinese-PGS
  660. Language                                 : Chinese
  661. Default                                  : No
  662. Forced                                   : No

  663. Text #23
  664. ID                                       : 40
  665. Format                                   : PGS
  666. Muxing mode                              : zlib
  667. Codec ID                                 : S_HDMV/PGS
  668. Codec ID/Info                            : Picture based subtitle format used on BDs/HD-DVDs
  669. Duration                                 : 1 h 52 min
  670. Bit rate                                 : 19.2 kb/s
  671. Count of elements                        : 2202
  672. Stream size                              : 15.5 MiB (0%)
  673. Title                                    : Czech-PGS
  674. Language                                 : Czech
  675. Default                                  : No
  676. Forced                                   : No

  677. Text #24
  678. ID                                       : 41
  679. Format                                   : PGS
  680. Muxing mode                              : zlib
  681. Codec ID                                 : S_HDMV/PGS
  682. Codec ID/Info                            : Picture based subtitle format used on BDs/HD-DVDs
  683. Duration                                 : 1 h 19 min
  684. Bit rate                                 : 237 b/s
  685. Count of elements                        : 18
  686. Stream size                              : 139 KiB (0%)
  687. Title                                    : Czech-FORCED-PGS
  688. Language                                 : Czech
  689. Default                                  : No
  690. Forced                                   : No

  691. Text #25
  692. ID                                       : 42
  693. Format                                   : PGS
  694. Muxing mode                              : zlib
  695. Codec ID                                 : S_HDMV/PGS
  696. Codec ID/Info                            : Picture based subtitle format used on BDs/HD-DVDs
  697. Duration                                 : 1 h 52 min
  698. Bit rate                                 : 21.8 kb/s
  699. Count of elements                        : 2042
  700. Stream size                              : 17.6 MiB (0%)
  701. Title                                    : Hungarian-PGS
  702. Language                                 : Hungarian
  703. Default                                  : No
  704. Forced                                   : No

  705. Text #26
  706. ID                                       : 43
  707. Format                                   : PGS
  708. Muxing mode                              : zlib
  709. Codec ID                                 : S_HDMV/PGS
  710. Codec ID/Info                            : Picture based subtitle format used on BDs/HD-DVDs
  711. Duration                                 : 1 h 26 min
  712. Bit rate                                 : 230 b/s
  713. Count of elements                        : 14
  714. Stream size                              : 146 KiB (0%)
  715. Title                                    : Hungarian-FORCED-PGS
  716. Language                                 : Hungarian
  717. Default                                  : No
  718. Forced                                   : No

  719. Text #27
  720. ID                                       : 44
  721. Format                                   : PGS
  722. Muxing mode                              : zlib
  723. Codec ID                                 : S_HDMV/PGS
  724. Codec ID/Info                            : Picture based subtitle format used on BDs/HD-DVDs
  725. Duration                                 : 1 h 52 min
  726. Bit rate                                 : 16.5 kb/s
  727. Count of elements                        : 2210
  728. Stream size                              : 13.3 MiB (0%)
  729. Title                                    : Korean-PGS
  730. Language                                 : Korean
  731. Default                                  : No
  732. Forced                                   : No

  733. Text #28
  734. ID                                       : 45
  735. Format                                   : PGS
  736. Muxing mode                              : zlib
  737. Codec ID                                 : S_HDMV/PGS
  738. Codec ID/Info                            : Picture based subtitle format used on BDs/HD-DVDs
  739. Duration                                 : 1 h 47 min
  740. Bit rate                                 : 22.7 kb/s
  741. Count of elements                        : 2460
  742. Stream size                              : 17.4 MiB (0%)
  743. Title                                    : Chinese-PGS
  744. Language                                 : Chinese
  745. Default                                  : No
  746. Forced                                   : No

  747. Text #29
  748. ID                                       : 46
  749. Format                                   : PGS
  750. Muxing mode                              : zlib
  751. Codec ID                                 : S_HDMV/PGS
  752. Codec ID/Info                            : Picture based subtitle format used on BDs/HD-DVDs
  753. Duration                                 : 1 h 47 min
  754. Bit rate                                 : 1 072 b/s
  755. Count of elements                        : 70
  756. Stream size                              : 842 KiB (0%)
  757. Title                                    : Chinese-PGS
  758. Language                                 : Chinese
  759. Default                                  : No
  760. Forced                                   : No

  761. Text #30
  762. ID                                       : 47
  763. Format                                   : PGS
  764. Muxing mode                              : zlib
  765. Codec ID                                 : S_HDMV/PGS
  766. Codec ID/Info                            : Picture based subtitle format used on BDs/HD-DVDs
  767. Duration                                 : 1 h 52 min
  768. Bit rate                                 : 17.9 kb/s
  769. Count of elements                        : 2202
  770. Stream size                              : 14.4 MiB (0%)
  771. Title                                    : Chinese-PGS
  772. Language                                 : Chinese
  773. Default                                  : No
  774. Forced                                   : No

  775. Text #31
  776. ID                                       : 48
  777. Format                                   : PGS
  778. Muxing mode                              : zlib
  779. Codec ID                                 : S_HDMV/PGS
  780. Codec ID/Info                            : Picture based subtitle format used on BDs/HD-DVDs
  781. Duration                                 : 1 h 52 min
  782. Bit rate                                 : 19.4 kb/s
  783. Count of elements                        : 2146
  784. Stream size                              : 15.7 MiB (0%)
  785. Title                                    : Polish-PGS
  786. Language                                 : Polish
  787. Default                                  : No
  788. Forced                                   : No

  789. Text #32
  790. ID                                       : 49
  791. Format                                   : PGS
  792. Muxing mode                              : zlib
  793. Codec ID                                 : S_HDMV/PGS
  794. Codec ID/Info                            : Picture based subtitle format used on BDs/HD-DVDs
  795. Duration                                 : 1 h 46 min
  796. Bit rate                                 : 253 b/s
  797. Count of elements                        : 20
  798. Stream size                              : 198 KiB (0%)
  799. Title                                    : Polish-FORCED-PGS
  800. Language                                 : Polish
  801. Default                                  : No
  802. Forced                                   : No

  803. Text #33
  804. ID                                       : 50
  805. Format                                   : PGS
  806. Muxing mode                              : zlib
  807. Codec ID                                 : S_HDMV/PGS
  808. Codec ID/Info                            : Picture based subtitle format used on BDs/HD-DVDs
  809. Duration                                 : 1 h 52 min
  810. Bit rate                                 : 23.1 kb/s
  811. Count of elements                        : 2210
  812. Stream size                              : 18.6 MiB (0%)
  813. Title                                    : Portuguese-PGS
  814. Language                                 : Portuguese
  815. Default                                  : No
  816. Forced                                   : No

  817. Text #34
  818. ID                                       : 51
  819. Format                                   : PGS
  820. Muxing mode                              : zlib
  821. Codec ID                                 : S_HDMV/PGS
  822. Codec ID/Info                            : Picture based subtitle format used on BDs/HD-DVDs
  823. Duration                                 : 1 h 52 min
  824. Bit rate                                 : 18.9 kb/s
  825. Count of elements                        : 2204
  826. Stream size                              : 15.3 MiB (0%)
  827. Title                                    : Thai-PGS
  828. Language                                 : Thai
  829. Default                                  : No
  830. Forced                                   : No

  831. Text #35
  832. ID                                       : 52
  833. Format                                   : PGS
  834. Muxing mode                              : zlib
  835. Codec ID                                 : S_HDMV/PGS
  836. Codec ID/Info                            : Picture based subtitle format used on BDs/HD-DVDs
  837. Duration                                 : 1 h 26 min
  838. Bit rate                                 : 199 b/s
  839. Count of elements                        : 16
  840. Stream size                              : 126 KiB (0%)
  841. Title                                    : Thai-FORCED-PGS
  842. Language                                 : Thai
  843. Default                                  : No
  844. Forced                                   : No

  845. Text #36
  846. ID                                       : 53
  847. Format                                   : PGS
  848. Muxing mode                              : zlib
  849. Codec ID                                 : S_HDMV/PGS
  850. Codec ID/Info                            : Picture based subtitle format used on BDs/HD-DVDs
  851. Duration                                 : 1 h 53 min
  852. Bit rate                                 : 75.7 kb/s
  853. Count of elements                        : 4362
  854. Stream size                              : 61.5 MiB (0%)
  855. Title                                    : English-COMMENTARY-PGS
  856. Language                                 : English
  857. Default                                  : No
  858. Forced                                   : No

  859. Text #37
  860. ID                                       : 54
  861. Format                                   : PGS
  862. Muxing mode                              : zlib
  863. Codec ID                                 : S_HDMV/PGS
  864. Codec ID/Info                            : Picture based subtitle format used on BDs/HD-DVDs
  865. Duration                                 : 1 h 53 min
  866. Bit rate                                 : 70.8 kb/s
  867. Count of elements                        : 4344
  868. Stream size                              : 57.6 MiB (0%)
  869. Title                                    : Spanish-COMMENTARY-PGS
  870. Language                                 : Spanish
  871. Default                                  : No
  872. Forced                                   : No

  873. Text #38
  874. ID                                       : 55
  875. Format                                   : PGS
  876. Muxing mode                              : zlib
  877. Codec ID                                 : S_HDMV/PGS
  878. Codec ID/Info                            : Picture based subtitle format used on BDs/HD-DVDs
  879. Duration                                 : 1 h 53 min
  880. Bit rate                                 : 63.8 kb/s
  881. Count of elements                        : 4344
  882. Stream size                              : 51.9 MiB (0%)
  883. Title                                    : French-COMMENTARY-PGS
  884. Language                                 : French
  885. Default                                  : No
  886. Forced                                   : No

  887. Text #39
  888. ID                                       : 56
  889. Format                                   : PGS
  890. Muxing mode                              : zlib
  891. Codec ID                                 : S_HDMV/PGS
  892. Codec ID/Info                            : Picture based subtitle format used on BDs/HD-DVDs
  893. Duration                                 : 1 h 53 min
  894. Bit rate                                 : 68.3 kb/s
  895. Count of elements                        : 4344
  896. Stream size                              : 55.6 MiB (0%)
  897. Title                                    : Spanish-COMMENTARY-PGS
  898. Language                                 : Spanish
  899. Default                                  : No
  900. Forced                                   : No

  901. Text #40
  902. ID                                       : 57
  903. Format                                   : PGS
  904. Muxing mode                              : zlib
  905. Codec ID                                 : S_HDMV/PGS
  906. Codec ID/Info                            : Picture based subtitle format used on BDs/HD-DVDs
  907. Duration                                 : 1 h 53 min
  908. Bit rate                                 : 68.9 kb/s
  909. Count of elements                        : 4344
  910. Stream size                              : 56.0 MiB (0%)
  911. Title                                    : German-COMMENTARY-PGS
  912. Language                                 : German
  913. Default                                  : No
  914. Forced                                   : No

  915. Text #41
  916. ID                                       : 58
  917. Format                                   : PGS
  918. Muxing mode                              : zlib
  919. Codec ID                                 : S_HDMV/PGS
  920. Codec ID/Info                            : Picture based subtitle format used on BDs/HD-DVDs
  921. Duration                                 : 1 h 53 min
  922. Bit rate                                 : 62.1 kb/s
  923. Count of elements                        : 4344
  924. Stream size                              : 50.5 MiB (0%)
  925. Title                                    : Italian-COMMENTARY-PGS
  926. Language                                 : Italian
  927. Default                                  : No
  928. Forced                                   : No

  929. Text #42
  930. ID                                       : 59
  931. Format                                   : PGS
  932. Muxing mode                              : zlib
  933. Codec ID                                 : S_HDMV/PGS
  934. Codec ID/Info                            : Picture based subtitle format used on BDs/HD-DVDs
  935. Duration                                 : 1 h 53 min
  936. Bit rate                                 : 48.6 kb/s
  937. Count of elements                        : 4346
  938. Stream size                              : 39.5 MiB (0%)
  939. Title                                    : Korean-COMMENTARY-PGS
  940. Language                                 : Korean
  941. Default                                  : No
  942. Forced                                   : No

  943. Text #43
  944. ID                                       : 60
  945. Format                                   : PGS
  946. Muxing mode                              : zlib
  947. Codec ID                                 : S_HDMV/PGS
  948. Codec ID/Info                            : Picture based subtitle format used on BDs/HD-DVDs
  949. Duration                                 : 1 h 5 min
  950. Bit rate                                 : 135 b/s
  951. Count of elements                        : 11
  952. Stream size                              : 64.8 KiB (0%)
  953. Title                                    : English-FORCED-PGS
  954. Language                                 : English
  955. Default                                  : No
  956. Forced                                   : No

  957. Menu
  958. 00:00:00.000                             : en:Chapter 01
  959. 00:03:28.541                             : en:Chapter 02
  960. 00:07:33.995                             : en:Chapter 03
  961. 00:11:41.867                             : en:Chapter 04
  962. 00:15:43.776                             : en:Chapter 05
  963. 00:18:37.074                             : en:Chapter 06
  964. 00:25:24.147                             : en:Chapter 07
  965. 00:31:40.023                             : en:Chapter 08
  966. 00:34:18.973                             : en:Chapter 09
  967. 00:40:07.113                             : en:Chapter 10
  968. 00:44:35.756                             : en:Chapter 11
  969. 00:49:07.319                             : en:Chapter 12
  970. 00:55:37.834                             : en:Chapter 13
  971. 00:58:57.075                             : en:Chapter 14
  972. 01:02:55.521                             : en:Chapter 15
  973. 01:10:39.777                             : en:Chapter 16
  974. 01:13:42.084                             : en:Chapter 17
  975. 01:19:32.893                             : en:Chapter 18
  976. 01:22:35.367                             : en:Chapter 19
  977. 01:25:48.351                             : en:Chapter 20
  978. 01:30:37.849                             : en:Chapter 21
  979. 01:32:47.603                             : en:Chapter 22
  980. 01:37:59.290                             : en:Chapter 23
  981. 01:45:00.711                             : en:Chapter 24
复制代码

X战警:黑凤凰 Dark.Phoenix.2019.2160p.BluRay.REMUX.HEVC.DTS-HD.MA.TrueHD.7.1.Atmos-FGT 53.25GB-2.png X战警:黑凤凰 Dark.Phoenix.2019.2160p.BluRay.REMUX.HEVC.DTS-HD.MA.TrueHD.7.1.Atmos-FGT 53.25GB-3.png X战警:黑凤凰 Dark.Phoenix.2019.2160p.BluRay.REMUX.HEVC.DTS-HD.MA.TrueHD.7.1.Atmos-FGT 53.25GB-4.png






开通VIP免费下载本站所有资源---点这里
新手必看:资源下载、资源播放、字幕使用、等常见问题---点这里
回复

使用道具 举报

 成长值: 380

发表于 5 天前 | 显示全部楼层
谢谢楼主无私分享。
开通VIP免费下载本站所有资源---点这里
新手必看:资源下载、资源播放、字幕使用、等常见问题---点这里
回复 支持 反对

使用道具 举报

懒得打字嘛,点击右侧快捷回复 【右侧内容,后台自定义】
您需要登录后才可以回帖 登录 | 立即加入

本版积分规则

现在加入蓝光电影网,注册一个账号

QQ| 手机版|小黑屋| 蓝光电影网 |网站地图

Copyright © 2015-2019 Comsenz Inc.  Template by 蓝光电影网 All Rights Reserved.

Powered by 蓝光电影网 X3.4

特别声明:本站所有资源均由网上收集而来,版权归原影音公司所有,如果侵犯了你的权益,请通知我们,我们会及时删除侵权内容.

快速回复 返回顶部 返回列表