找回密码

蓝光电影网

查看: 136|回复: 4

[8bit.SDR] 海底总动员 Finding.Nemo.2003.2160p.BluRay.x264.8bit.SDR.TrueHD.7.1.Atmos-SWTYBLZ 24.55GB

[复制链接]

 成长值: 1345

发表于 2019-9-8 14:41:53 | 显示全部楼层 |阅读模式
海底总动员 Finding.Nemo.2003.2160p.BluRay.x264.8bit.SDR.TrueHD.7.1.Atmos-SWTYBLZ 24.55GB-1.png

译  名 海底总动员 / Finding Nemo 3D / 寻找尼莫 / 海底奇兵 / 海底总动员3D
片  名 Finding Nemo
年  代 2003
产  地 美国 / 澳大利亚
类  别 喜剧 / 动画 / 家庭 / 冒险
语  言 英语
上映日期 2003-05-30(美国) / 2003-07-30(中国大陆) / 2012-09-14(美国)
IMDb评分  8.1/10 from 880119 users
IMDb链接  http://www.imdb.com/title/tt0266543
豆瓣评分 8.3/10 from 267476 users
豆瓣链接 https://movie.douban.com/subject/1291586/
片  长 100 分钟
导  演 安德鲁·斯坦顿 Andrew Stanton / 李·昂克里奇 Lee Unkrich
编  剧 安德鲁·斯坦顿 Andrew Stanton / 鲍勃·彼德森 Bob Peterson / 大卫·雷诺兹 David Reynolds
主  演 艾伯特·布鲁克斯 Albert Brooks
       艾伦·德杰尼勒斯 Ellen DeGeneres
       亚历山大·古尔德 Alexander Gould
       威廉·达福 Willem Dafoe
       布拉德·加内特 Brad Garrett
       艾莉森·珍妮 Allison Janney
       Austin Pendleton
       斯蒂芬·鲁特 Stephen Root
       杰弗里·拉什 Geoffrey Rush
       伊丽莎白·帕金斯 Elizabeth Perkins


标  签 动画 | 迪斯尼 | 美国 | 亲情 | 喜剧 | 经典 | 2003 | pixar

简  介  

  在澳洲大堡礁的深海中,小丑鱼爸爸玛林和儿子尼莫简单幸福的生活着,可是爸爸做事常常畏首畏尾,是个胆小鬼,尼莫觉得爸爸很不勇敢,甚至有点看不起自己的爸爸。小尼莫却天不怕地不怕,跟同伴们去水面玩耍的时候,竟然被渔网捞了起来,辗转被卖到一家牙医诊所。玛林对儿子的生死未卜感到十分的担忧,就算平时不能大胆行事,为了儿子也要勇敢豁出去了。可是在路上遇到了很多艰难与恐惧,令他十分胆怯。幸好他遇到了好心的多瑞,一路与他作伴。父子俩都遇到了很多热心的帮助,最终都能重逢,玛林也从此成为儿子以及大家心中的英雄。

获奖情况  

  第76届奥斯卡金像奖(2004)
  最佳原创剧本(提名) 安德鲁·斯坦顿
  最佳动画长片 安德鲁·斯坦顿
  最佳音效剪辑(提名) 嘉里·瑞德斯托姆 / 迈克尔·席维斯
  最佳原创配乐(提名) 托马斯·纽曼

  第61届金球奖(2004)
  电影类 最佳音乐/喜剧片(提名)

  第57届英国电影学院奖(2004)
  电影奖 最佳原创剧本(提名) 大卫·雷诺兹 / 安德鲁·斯坦顿 / 鲍勃·彼德森

  第31届动画安妮奖(2004)
  最佳动画长片
  最佳导演 安德鲁·斯坦顿 / 李·昂克里奇
  最佳编剧 大卫·雷诺兹 / 安德鲁·斯坦顿 / 鲍勃·彼德森
  最佳配音 艾伦·德杰尼勒斯
  最佳配乐 托马斯·纽曼
  最佳艺术指导 拉夫·埃格尔斯顿
  最佳动画角色 道格·斯威特兰德
  最佳动画角色(提名) Gini Santos
  最佳角色设计 Ricky Nierva
  最佳动画效果 Martin Nguyen
  最佳动画效果(提名) Martin Nguyen / Justin Paul Ritter / Justin Paul Ritter

  第4届美国电影学会奖(2003)
  年度佳片
  1. Video
  2. ID                                       : 1
  3. Format                                   : AVC
  4. Format/Info                              : Advanced Video Codec
  5. Format profile                           : <a href="/cdn-cgi/l/email-protection" class="__cf_email__" data-cfemail="0d45646a654d4138233c">[email protected]</a>
  6. Format settings                          : CABAC / 5 Ref Frames
  7. Format settings, CABAC                   : Yes
  8. Format settings, Reference frames        : 5 frames
  9. Codec ID                                 : V_MPEG4/ISO/AVC
  10. Duration                                 : 1 h 40 min
  11. Bit rate                                 : 27.1 Mb/s
  12. Width                                    : 3 840 pixels
  13. Height                                   : 2 160 pixels
  14. Display aspect ratio                     : 16:9
  15. Frame rate mode                          : Constant
  16. Frame rate                               : 23.976 (24000/1001) FPS
  17. Color space                              : YUV
  18. Chroma subsampling                       : 4:2:0
  19. Bit depth                                : 8 bits
  20. Scan type                                : Progressive
  21. Bits/(Pixel*Frame)                       : 0.136
  22. Stream size                              : 19.1 GiB (78%)
  23. Title                                    : Finding.Nemo.2003.2160p.BluRay.x264.8bit.SDR.TrueHD.7.1.Atmos-SWTYBLZ
  24. Writing library                          : x264 core 157 r2935 545de2f
  25. Encoding settings                        : cabac=1 / ref=5 / deblock=1:1:1 / analyse=0x3:0x113 / me=umh / subme=10 / psy=1 / psy_rd=0.40:0.00 / mixed_ref=1 / me_range=48 / chroma_me=1 / trellis=2 / 8x8dct=1 / cqm=0 / deadzone=21,11 / fast_pskip=1 / chroma_qp_offset=-2 / threads=48 / lookahead_threads=5 / sliced_threads=0 / nr=0 / decimate=0 / interlaced=0 / bluray_compat=0 / constrained_intra=0 / bframes=5 / b_pyramid=2 / b_adapt=2 / b_bias=0 / direct=3 / weightb=1 / open_gop=0 / weightp=2 / keyint=250 / keyint_min=23 / scenecut=40 / intra_refresh=0 / rc_lookahead=50 / rc=crf / mbtree=1 / crf=16.0 / qcomp=0.60 / qpmin=0 / qpmax=69 / qpstep=4 / ip_ratio=1.40 / aq=1:0.60
  26. Default                                  : Yes
  27. Forced                                   : No

  28. Audio #1
  29. ID                                       : 2
  30. Format                                   : MLP FBA 16-ch
  31. Format/Info                              : Meridian Lossless Packing FBA with 16-channel presentation
  32. Commercial name                          : Dolby TrueHD with Dolby Atmos
  33. Codec ID                                 : A_TRUEHD
  34. Duration                                 : 1 h 40 min
  35. Bit rate mode                            : Variable
  36. Bit rate                                 : 6 896 kb/s
  37. Maximum bit rate                         : 9 480 kb/s
  38. Channel(s)                               : 8 channels
  39. Channel layout                           : L R C LFE Ls Rs Lb Rb
  40. Sampling rate                            : 48.0 kHz
  41. Frame rate                               : 1 200.000 FPS (40 SPF)
  42. Compression mode                         : Lossless
  43. Stream size                              : 4.86 GiB (20%)
  44. Title                                    : Finding.Nemo.2003.2160p.BluRay.x264.8bit.SDR.TrueHD.7.1.Atmos-SWTYBLZ
  45. Language                                 : English
  46. Default                                  : Yes
  47. Forced                                   : No
  48. Number of dynamic objects                : 13
  49. Bed channel count                        : 1 channel
  50. Bed channel configuration                : LFE

  51. Audio #2
  52. ID                                       : 3
  53. Format                                   : AC-3
  54. Format/Info                              : Audio Coding 3
  55. Commercial name                          : Dolby Digital
  56. Codec ID                                 : A_AC3
  57. Duration                                 : 1 h 40 min
  58. Bit rate mode                            : Constant
  59. Bit rate                                 : 640 kb/s
  60. Channel(s)                               : 6 channels
  61. Channel layout                           : L R C LFE Ls Rs
  62. Sampling rate                            : 48.0 kHz
  63. Frame rate                               : 31.250 FPS (1536 SPF)
  64. Bit depth                                : 16 bits
  65. Compression mode                         : Lossy
  66. Stream size                              : 462 MiB (2%)
  67. Title                                    : Finding.Nemo.2003.2160p.BluRay.x264.8bit.SDR.TrueHD.7.1.Atmos-SWTYBLZ
  68. Language                                 : English
  69. Service kind                             : Complete Main
  70. Default                                  : No
  71. Forced                                   : No

  72. Text #1
  73. ID                                       : 4
  74. Format                                   : UTF-8
  75. Codec ID                                 : S_TEXT/UTF8
  76. Codec ID/Info                            : UTF-8 Plain Text
  77. Duration                                 : 1 h 32 min
  78. Bit rate                                 : 69 b/s
  79. Count of elements                        : 1521
  80. Stream size                              : 47.2 KiB (0%)
  81. Title                                    : English-SRT
  82. Language                                 : English
  83. Default                                  : Yes
  84. Forced                                   : No

  85. Text #2
  86. ID                                       : 5
  87. Format                                   : PGS
  88. Muxing mode                              : zlib
  89. Codec ID                                 : S_HDMV/PGS
  90. Codec ID/Info                            : Picture based subtitle format used on BDs/HD-DVDs
  91. Duration                                 : 1 h 32 min
  92. Bit rate                                 : 44.8 kb/s
  93. Count of elements                        : 3150
  94. Stream size                              : 29.7 MiB (0%)
  95. Title                                    : English-PGS
  96. Language                                 : English
  97. Default                                  : No
  98. Forced                                   : No

  99. Text #3
  100. ID                                       : 6
  101. Format                                   : PGS
  102. Muxing mode                              : zlib
  103. Codec ID                                 : S_HDMV/PGS
  104. Codec ID/Info                            : Picture based subtitle format used on BDs/HD-DVDs
  105. Duration                                 : 1 h 32 min
  106. Bit rate                                 : 46.6 kb/s
  107. Count of elements                        : 3272
  108. Stream size                              : 30.9 MiB (0%)
  109. Title                                    : French-PGS
  110. Language                                 : French
  111. Default                                  : No
  112. Forced                                   : No

  113. Text #4
  114. ID                                       : 7
  115. Format                                   : PGS
  116. Muxing mode                              : zlib
  117. Codec ID                                 : S_HDMV/PGS
  118. Codec ID/Info                            : Picture based subtitle format used on BDs/HD-DVDs
  119. Duration                                 : 1 h 32 min
  120. Bit rate                                 : 41.9 kb/s
  121. Count of elements                        : 3070
  122. Stream size                              : 27.7 MiB (0%)
  123. Title                                    : Spanish-PGS
  124. Language                                 : Spanish
  125. Default                                  : No
  126. Forced                                   : No

  127. Text #5
  128. ID                                       : 8
  129. Format                                   : PGS
  130. Muxing mode                              : zlib
  131. Codec ID                                 : S_HDMV/PGS
  132. Codec ID/Info                            : Picture based subtitle format used on BDs/HD-DVDs
  133. Duration                                 : 1 h 32 min
  134. Bit rate                                 : 30.4 kb/s
  135. Count of elements                        : 3064
  136. Stream size                              : 20.1 MiB (0%)
  137. Title                                    : Japanese-PGS
  138. Language                                 : Japanese
  139. Default                                  : No
  140. Forced                                   : No

  141. Menu
  142. 00:00:00.000                             : en:Chapter 01
  143. 00:04:18.716                             : en:Chapter 02
  144. 00:05:35.668                             : en:Chapter 03
  145. 00:11:17.802                             : en:Chapter 04
  146. 00:12:16.235                             : en:Chapter 05
  147. 00:14:08.556                             : en:Chapter 06
  148. 00:16:29.029                             : en:Chapter 07
  149. 00:18:50.337                             : en:Chapter 08
  150. 00:25:31.780                             : en:Chapter 09
  151. 00:30:54.227                             : en:Chapter 10
  152. 00:33:01.646                             : en:Chapter 11
  153. 00:36:11.836                             : en:Chapter 12
  154. 00:40:19.166                             : en:Chapter 13
  155. 00:44:58.278                             : en:Chapter 14
  156. 00:48:12.180                             : en:Chapter 15
  157. 00:51:28.418                             : en:Chapter 16
  158. 00:56:07.030                             : en:Chapter 17
  159. 01:00:55.610                             : en:Chapter 18
  160. 01:05:20.666                             : en:Chapter 19
  161. 01:07:02.101                             : en:Chapter 20
  162. 01:08:30.147                             : en:Chapter 21
  163. 01:13:19.103                             : en:Chapter 22
  164. 01:14:15.117                             : en:Chapter 23
  165. 01:16:00.097                             : en:Chapter 24
  166. 01:18:41.299                             : en:Chapter 25
  167. 01:21:57.621                             : en:Chapter 26
  168. 01:24:29.481                             : en:Chapter 27
  169. 01:26:54.334                             : en:Chapter 28
  170. 01:29:26.611                             : en:Chapter 29
  171. 01:30:51.362                             : en:Chapter 30
  172. 01:32:42.932                             : en:Chapter 31
  173. 01:33:24.265                             : en:Chapter 32
复制代码

04cabfc5f5bc9.png 海底总动员 Finding.Nemo.2003.2160p.BluRay.x264.8bit.SDR.TrueHD.7.1.Atmos-SWTYBLZ 24.55GB-3.png 海底总动员 Finding.Nemo.2003.2160p.BluRay.x264.8bit.SDR.TrueHD.7.1.Atmos-SWTYBLZ 24.55GB-4.png 海底总动员 Finding.Nemo.2003.2160p.BluRay.x264.8bit.SDR.TrueHD.7.1.Atmos-SWTYBLZ 24.55GB-5.png 海底总动员 Finding.Nemo.2003.2160p.BluRay.x264.8bit.SDR.TrueHD.7.1.Atmos-SWTYBLZ 24.55GB-6.png






开通VIP免费下载本站所有资源---点这里
新手必看:资源下载、资源播放、字幕使用、等常见问题---点这里
回复

使用道具 举报

发表于 2019-9-8 16:30:55 | 显示全部楼层
海地总动员,
开通VIP免费下载本站所有资源---点这里
新手必看:资源下载、资源播放、字幕使用、等常见问题---点这里
回复 支持 反对

使用道具 举报

发表于 2019-9-8 16:41:04 | 显示全部楼层
海地总动员,
开通VIP免费下载本站所有资源---点这里
新手必看:资源下载、资源播放、字幕使用、等常见问题---点这里
回复 支持 反对

使用道具 举报

发表于 7 天前 | 显示全部楼层

这个帖子不回对不起自己!我想我是一天也不能离开蓝光电影网
开通VIP免费下载本站所有资源---点这里
新手必看:资源下载、资源播放、字幕使用、等常见问题---点这里
回复 支持 反对

使用道具 举报

发表于 7 天前 | 显示全部楼层
谢谢楼主分享好电影
开通VIP免费下载本站所有资源---点这里
新手必看:资源下载、资源播放、字幕使用、等常见问题---点这里
回复 支持 反对

使用道具 举报

懒得打字嘛,点击右侧快捷回复 【右侧内容,后台自定义】
您需要登录后才可以回帖 登录 | 立即加入

本版积分规则

现在加入蓝光电影网,注册一个账号

QQ| 手机版|小黑屋| 蓝光电影网 |网站地图

Copyright © 2015-2019 Comsenz Inc.  Template by 蓝光电影网 All Rights Reserved.

Powered by 蓝光电影网 X3.4

特别声明:本站所有资源均由网上收集而来,版权归原影音公司所有,如果侵犯了你的权益,请通知我们,我们会及时删除侵权内容.

快速回复 返回顶部 返回列表