找回密码

蓝光电影网

查看: 116|回复: 2

[10bit.SDR] 海底总动员 Finding.Nemo.2003.2160p.BluRay.x265.10bit.SDR.TrueHD.7.1.Atmos-SWTYBLZ 25.20GB

[复制链接]

 成长值: 1345

发表于 2019-9-8 14:39:11 | 显示全部楼层 |阅读模式
海底总动员 Finding.Nemo.2003.2160p.BluRay.x265.10bit.SDR.TrueHD.7.1.Atmos-SWTYBLZ 25.20GB-1.png

译  名 海底总动员 / Finding Nemo 3D / 寻找尼莫 / 海底奇兵 / 海底总动员3D
片  名 Finding Nemo
年  代 2003
产  地 美国 / 澳大利亚
类  别 喜剧 / 动画 / 家庭 / 冒险
语  言 英语
上映日期 2003-05-30(美国) / 2003-07-30(中国大陆) / 2012-09-14(美国)
IMDb评分  8.1/10 from 880119 users
IMDb链接  http://www.imdb.com/title/tt0266543
豆瓣评分 8.3/10 from 267476 users
豆瓣链接 https://movie.douban.com/subject/1291586/
片  长 100 分钟
导  演 安德鲁·斯坦顿 Andrew Stanton / 李·昂克里奇 Lee Unkrich
编  剧 安德鲁·斯坦顿 Andrew Stanton / 鲍勃·彼德森 Bob Peterson / 大卫·雷诺兹 David Reynolds
主  演 艾伯特·布鲁克斯 Albert Brooks
       艾伦·德杰尼勒斯 Ellen DeGeneres
       亚历山大·古尔德 Alexander Gould
       威廉·达福 Willem Dafoe
       布拉德·加内特 Brad Garrett
       艾莉森·珍妮 Allison Janney
       Austin Pendleton
       斯蒂芬·鲁特 Stephen Root
       杰弗里·拉什 Geoffrey Rush
       伊丽莎白·帕金斯 Elizabeth Perkins


标  签 动画 | 迪斯尼 | 美国 | 亲情 | 喜剧 | 经典 | 2003 | pixar

简  介  

  在澳洲大堡礁的深海中,小丑鱼爸爸玛林和儿子尼莫简单幸福的生活着,可是爸爸做事常常畏首畏尾,是个胆小鬼,尼莫觉得爸爸很不勇敢,甚至有点看不起自己的爸爸。小尼莫却天不怕地不怕,跟同伴们去水面玩耍的时候,竟然被渔网捞了起来,辗转被卖到一家牙医诊所。玛林对儿子的生死未卜感到十分的担忧,就算平时不能大胆行事,为了儿子也要勇敢豁出去了。可是在路上遇到了很多艰难与恐惧,令他十分胆怯。幸好他遇到了好心的多瑞,一路与他作伴。父子俩都遇到了很多热心的帮助,最终都能重逢,玛林也从此成为儿子以及大家心中的英雄。

获奖情况  

  第76届奥斯卡金像奖(2004)
  最佳原创剧本(提名) 安德鲁·斯坦顿
  最佳动画长片 安德鲁·斯坦顿
  最佳音效剪辑(提名) 嘉里·瑞德斯托姆 / 迈克尔·席维斯
  最佳原创配乐(提名) 托马斯·纽曼

  第61届金球奖(2004)
  电影类 最佳音乐/喜剧片(提名)

  第57届英国电影学院奖(2004)
  电影奖 最佳原创剧本(提名) 大卫·雷诺兹 / 安德鲁·斯坦顿 / 鲍勃·彼德森

  第31届动画安妮奖(2004)
  最佳动画长片
  最佳导演 安德鲁·斯坦顿 / 李·昂克里奇
  最佳编剧 大卫·雷诺兹 / 安德鲁·斯坦顿 / 鲍勃·彼德森
  最佳配音 艾伦·德杰尼勒斯
  最佳配乐 托马斯·纽曼
  最佳艺术指导 拉夫·埃格尔斯顿
  最佳动画角色 道格·斯威特兰德
  最佳动画角色(提名) Gini Santos
  最佳角色设计 Ricky Nierva
  最佳动画效果 Martin Nguyen
  最佳动画效果(提名) Martin Nguyen / Justin Paul Ritter / Justin Paul Ritter

  第4届美国电影学会奖(2003)
  年度佳片
  1. Video
  2. ID                                       : 1
  3. Format                                   : HEVC
  4. Format/Info                              : High Efficiency Video Coding
  5. Format profile                           : Main <a href="/cdn-cgi/l/email-protection" class="__cf_email__" data-cfemail="122322525e273c23">[email protected]</a>@High
  6. Codec ID                                 : V_MPEGH/ISO/HEVC
  7. Duration                                 : 1 h 40 min
  8. Bit rate                                 : 28.0 Mb/s
  9. Width                                    : 3 840 pixels
  10. Height                                   : 2 160 pixels
  11. Display aspect ratio                     : 16:9
  12. Frame rate mode                          : Constant
  13. Frame rate                               : 23.976 (24000/1001) FPS
  14. Color space                              : YUV
  15. Chroma subsampling                       : 4:2:0
  16. Bit depth                                : 10 bits
  17. Bits/(Pixel*Frame)                       : 0.141
  18. Stream size                              : 19.7 GiB (79%)
  19. Title                                    : Finding.Nemo.2003.2160p.BluRay.x265.10bit.SDR.TrueHD.7.1.Atmos-SWTYBLZ
  20. Writing library                          : x265 3.0ed72af837053:[Windows][GCC 8.2.0][64 bit] 10bit
  21. Encoding settings                        : cpuid=1111039 / frame-threads=16 / numa-pools=44,44 / wpp / no-pmode / no-pme / no-psnr / no-ssim / log-level=2 / input-csp=1 / input-res=3840x2160 / interlace=0 / total-frames=145150 / level-idc=51 / high-tier=1 / uhd-bd=0 / ref=3 / no-allow-non-conformance / repeat-headers / annexb / aud / hrd / info / hash=0 / no-temporal-layers / no-open-gop / min-keyint=1 / keyint=24 / gop-lookahead=0 / bframes=6 / b-adapt=2 / b-pyramid / bframe-bias=0 / rc-lookahead=25 / lookahead-slices=4 / scenecut=40 / radl=0 / no-splice / no-intra-refresh / ctu=64 / min-cu-size=8 / no-rect / no-amp / max-tu-size=32 / tu-inter-depth=1 / tu-intra-depth=1 / limit-tu=0 / rdoq-level=0 / dynamic-rd=0.00 / no-ssim-rd / signhide / no-tskip / nr-intra=0 / nr-inter=0 / no-constrained-intra / strong-intra-smoothing / max-merge=2 / limit-refs=3 / no-limit-modes / me=1 / subme=2 / merange=57 / temporal-mvp / weightp / no-weightb / no-analyze-src-pics / deblock=1:1 / no-sao / no-sao-non-deblock / rd=3 / no-early-skip / rskip / no-fast-intra / no-tskip-fast / no-cu-lossless / no-b-intra / no-splitrd-skip / rdpenalty=0 / psy-rd=0.40 / psy-rdoq=0.00 / no-rd-refine / no-lossless / cbqpoffs=0 / crqpoffs=0 / rc=crf / crf=14.0 / qcomp=0.60 / qpstep=4 / stats-write=0 / stats-read=0 / vbv-maxrate=160000 / vbv-bufsize=160000 / vbv-init=0.9 / crf-max=0.0 / crf-min=0.0 / ipratio=1.40 / pbratio=1.30 / aq-mode=1 / aq-strength=0.40 / cutree / zone-count=0 / no-strict-cbr / qg-size=32 / no-rc-grain / qpmax=69 / qpmin=0 / no-const-vbv / sar=1 / overscan=0 / videoformat=5 / range=0 / colorprim=2 / transfer=2 / colormatrix=2 / chromaloc=0 / display-window=0 / max-cll=0,0 / min-luma=0 / max-luma=1023 / log2-max-poc-lsb=8 / vui-timing-info / vui-hrd-info / slices=1 / opt-qp-pps / opt-ref-list-length-pps / no-multi-pass-opt-rps / scenecut-bias=0.05 / no-opt-cu-delta-qp / no-aq-motion / no-hdr / no-hdr-opt / no-dhdr10-opt / no-idr-recovery-sei / analysis-reuse-level=5 / scale-factor=0 / refine-intra=0 / refine-inter=0 / refine-mv=0 / refine-ctu-distortion=0 / no-limit-sao / ctu-info=0 / no-lowpass-dct / refine-analysis-type=0 / copy-pic=1 / max-ausize-factor=1.0 / no-dynamic-refine / no-single-sei / no-hevc-aq / qp-adaptation-range=1.00
  22. Default                                  : Yes
  23. Forced                                   : No

  24. Audio #1
  25. ID                                       : 2
  26. Format                                   : MLP FBA 16-ch
  27. Format/Info                              : Meridian Lossless Packing FBA with 16-channel presentation
  28. Commercial name                          : Dolby TrueHD with Dolby Atmos
  29. Codec ID                                 : A_TRUEHD
  30. Duration                                 : 1 h 40 min
  31. Bit rate mode                            : Variable
  32. Bit rate                                 : 6 896 kb/s
  33. Maximum bit rate                         : 9 480 kb/s
  34. Channel(s)                               : 8 channels
  35. Channel layout                           : L R C LFE Ls Rs Lb Rb
  36. Sampling rate                            : 48.0 kHz
  37. Frame rate                               : 1 200.000 FPS (40 SPF)
  38. Compression mode                         : Lossless
  39. Stream size                              : 4.86 GiB (19%)
  40. Title                                    : Finding.Nemo.2003.2160p.BluRay.x265.10bit.SDR.TrueHD.7.1.Atmos-SWTYBLZ
  41. Language                                 : English
  42. Default                                  : Yes
  43. Forced                                   : No
  44. Number of dynamic objects                : 13
  45. Bed channel count                        : 1 channel
  46. Bed channel configuration                : LFE

  47. Audio #2
  48. ID                                       : 3
  49. Format                                   : AC-3
  50. Format/Info                              : Audio Coding 3
  51. Commercial name                          : Dolby Digital
  52. Codec ID                                 : A_AC3
  53. Duration                                 : 1 h 40 min
  54. Bit rate mode                            : Constant
  55. Bit rate                                 : 640 kb/s
  56. Channel(s)                               : 6 channels
  57. Channel layout                           : L R C LFE Ls Rs
  58. Sampling rate                            : 48.0 kHz
  59. Frame rate                               : 31.250 FPS (1536 SPF)
  60. Bit depth                                : 16 bits
  61. Compression mode                         : Lossy
  62. Stream size                              : 462 MiB (2%)
  63. Title                                    : Finding.Nemo.2003.2160p.BluRay.x265.10bit.SDR.TrueHD.7.1.Atmos-SWTYBLZ
  64. Language                                 : English
  65. Service kind                             : Complete Main
  66. Default                                  : No
  67. Forced                                   : No

  68. Text #1
  69. ID                                       : 4
  70. Format                                   : UTF-8
  71. Codec ID                                 : S_TEXT/UTF8
  72. Codec ID/Info                            : UTF-8 Plain Text
  73. Duration                                 : 1 h 32 min
  74. Bit rate                                 : 69 b/s
  75. Count of elements                        : 1521
  76. Stream size                              : 47.2 KiB (0%)
  77. Title                                    : English-SRT
  78. Language                                 : English
  79. Default                                  : Yes
  80. Forced                                   : No

  81. Text #2
  82. ID                                       : 5
  83. Format                                   : PGS
  84. Muxing mode                              : zlib
  85. Codec ID                                 : S_HDMV/PGS
  86. Codec ID/Info                            : Picture based subtitle format used on BDs/HD-DVDs
  87. Duration                                 : 1 h 32 min
  88. Bit rate                                 : 44.8 kb/s
  89. Count of elements                        : 3150
  90. Stream size                              : 29.7 MiB (0%)
  91. Title                                    : English-PGS
  92. Language                                 : English
  93. Default                                  : No
  94. Forced                                   : No

  95. Text #3
  96. ID                                       : 6
  97. Format                                   : PGS
  98. Muxing mode                              : zlib
  99. Codec ID                                 : S_HDMV/PGS
  100. Codec ID/Info                            : Picture based subtitle format used on BDs/HD-DVDs
  101. Duration                                 : 1 h 32 min
  102. Bit rate                                 : 46.6 kb/s
  103. Count of elements                        : 3272
  104. Stream size                              : 30.9 MiB (0%)
  105. Title                                    : French-PGS
  106. Language                                 : French
  107. Default                                  : No
  108. Forced                                   : No

  109. Text #4
  110. ID                                       : 7
  111. Format                                   : PGS
  112. Muxing mode                              : zlib
  113. Codec ID                                 : S_HDMV/PGS
  114. Codec ID/Info                            : Picture based subtitle format used on BDs/HD-DVDs
  115. Duration                                 : 1 h 32 min
  116. Bit rate                                 : 41.9 kb/s
  117. Count of elements                        : 3070
  118. Stream size                              : 27.7 MiB (0%)
  119. Title                                    : Spanish-PGS
  120. Language                                 : Spanish
  121. Default                                  : No
  122. Forced                                   : No

  123. Text #5
  124. ID                                       : 8
  125. Format                                   : PGS
  126. Muxing mode                              : zlib
  127. Codec ID                                 : S_HDMV/PGS
  128. Codec ID/Info                            : Picture based subtitle format used on BDs/HD-DVDs
  129. Duration                                 : 1 h 32 min
  130. Bit rate                                 : 30.4 kb/s
  131. Count of elements                        : 3064
  132. Stream size                              : 20.1 MiB (0%)
  133. Title                                    : Japanese-PGS
  134. Language                                 : Japanese
  135. Default                                  : No
  136. Forced                                   : No

  137. Menu
  138. 00:00:00.000                             : en:Chapter 01
  139. 00:04:18.716                             : en:Chapter 02
  140. 00:05:35.668                             : en:Chapter 03
  141. 00:11:17.802                             : en:Chapter 04
  142. 00:12:16.235                             : en:Chapter 05
  143. 00:14:08.556                             : en:Chapter 06
  144. 00:16:29.029                             : en:Chapter 07
  145. 00:18:50.337                             : en:Chapter 08
  146. 00:25:31.780                             : en:Chapter 09
  147. 00:30:54.227                             : en:Chapter 10
  148. 00:33:01.646                             : en:Chapter 11
  149. 00:36:11.836                             : en:Chapter 12
  150. 00:40:19.166                             : en:Chapter 13
  151. 00:44:58.278                             : en:Chapter 14
  152. 00:48:12.180                             : en:Chapter 15
  153. 00:51:28.418                             : en:Chapter 16
  154. 00:56:07.030                             : en:Chapter 17
  155. 01:00:55.610                             : en:Chapter 18
  156. 01:05:20.666                             : en:Chapter 19
  157. 01:07:02.101                             : en:Chapter 20
  158. 01:08:30.147                             : en:Chapter 21
  159. 01:13:19.103                             : en:Chapter 22
  160. 01:14:15.117                             : en:Chapter 23
  161. 01:16:00.097                             : en:Chapter 24
  162. 01:18:41.299                             : en:Chapter 25
  163. 01:21:57.621                             : en:Chapter 26
  164. 01:24:29.481                             : en:Chapter 27
  165. 01:26:54.334                             : en:Chapter 28
  166. 01:29:26.611                             : en:Chapter 29
  167. 01:30:51.362                             : en:Chapter 30
  168. 01:32:42.932                             : en:Chapter 31
  169. 01:33:24.265                             : en:Chapter 32
复制代码

海底总动员 Finding.Nemo.2003.2160p.BluRay.x265.10bit.SDR.TrueHD.7.1.Atmos-SWTYBLZ 25.20GB-2.png 海底总动员 Finding.Nemo.2003.2160p.BluRay.x265.10bit.SDR.TrueHD.7.1.Atmos-SWTYBLZ 25.20GB-3.png 海底总动员 Finding.Nemo.2003.2160p.BluRay.x265.10bit.SDR.TrueHD.7.1.Atmos-SWTYBLZ 25.20GB-4.png 40c7133b0c6d9.png 海底总动员 Finding.Nemo.2003.2160p.BluRay.x265.10bit.SDR.TrueHD.7.1.Atmos-SWTYBLZ 25.20GB-6.png






开通VIP免费下载本站所有资源---点这里
新手必看:资源下载、资源播放、字幕使用、等常见问题---点这里
回复

使用道具 举报

 成长值: 265

发表于 2019-9-8 21:19:25 | 显示全部楼层

楼主,大恩不言谢了!蓝光电影网是最棒的!
开通VIP免费下载本站所有资源---点这里
新手必看:资源下载、资源播放、字幕使用、等常见问题---点这里
回复 支持 反对

使用道具 举报

发表于 2019-9-8 23:41:02 | 显示全部楼层
找了很久的资料,感谢分享
开通VIP免费下载本站所有资源---点这里
新手必看:资源下载、资源播放、字幕使用、等常见问题---点这里
回复 支持 反对

使用道具 举报

懒得打字嘛,点击右侧快捷回复 【右侧内容,后台自定义】
您需要登录后才可以回帖 登录 | 立即加入

本版积分规则

现在加入蓝光电影网,注册一个账号

QQ| 手机版|小黑屋| 蓝光电影网 |网站地图

Copyright © 2015-2019 Comsenz Inc.  Template by 蓝光电影网 All Rights Reserved.

Powered by 蓝光电影网 X3.4

特别声明:本站所有资源均由网上收集而来,版权归原影音公司所有,如果侵犯了你的权益,请通知我们,我们会及时删除侵权内容.

快速回复 返回顶部 返回列表