找回密码

蓝光电影网

查看: 144|回复: 0

[8bit.SDR] 海底总动员2:多莉去哪儿/寻找多莉 Finding.Dory.2016.2160p.BluRay.x264.8bit.SDR.TrueHD.7.1.Atmos-SWTYBLZ 22.74GB

[复制链接]

 成长值: 1345

发表于 2019-9-8 14:12:43 | 显示全部楼层 |阅读模式
海底总动员2:多莉去哪儿/寻找多莉 Finding.Dory.2016.2160p.BluRay.x264.8bit.SDR.TrueHD.7.1.Atmos-SWTYBLZ 22.74GB-1.png

译  名 海底总动员2:多莉去哪儿 / 寻找多莉 / 海底奇兵2(港) / 海底总动员2:寻找多莉
片  名 Finding Dory
年  代 2016
产  地 美国
类  别 喜剧 / 动画 / 家庭 / 冒险
语  言 英语
上映日期 2016-06-17(中国大陆/美国)
IMDb评分  7.3/10 from 217794 users
IMDb链接  http://www.imdb.com/title/tt2277860
豆瓣评分 7.4/10 from 77818 users
豆瓣链接 https://movie.douban.com/subject/11524967/
片  长 97分钟
导  演 安德鲁·斯坦顿 Andrew Stanton / 安格斯·麦克莱恩 Angus MacLane
编  剧 安德鲁·斯坦顿 Andrew Stanton / 维多利亚·斯特劳斯 Victoria Strouse / 鲍勃·彼德森 Bob Peterson
主  演 艾伦·德杰尼勒斯 Ellen DeGeneres
       艾伯特·布鲁克斯 Albert Brooks
       艾德·奥尼尔 Ed O'Neill
       凯特琳·奥尔森 Kaitlin Olson
       海登·罗兰斯 Hayden Rolence
       泰·布利尔 Ty Burrell
       黛安·基顿 Diane Keaton
       尤金·列维 Eugene Levy
       斯隆·穆雷 Sloane Murray
       伊德里斯·艾尔巴 Idris Elba
       多米尼克·威斯特 Dominic West
       鲍勃·彼德森 Bob Peterson
       凯特·麦克金农 Kate McKinnon
       比尔·哈德尔 Bill Hader
       西格妮·韦弗 Sigourney Weaver


标  签 动画 | 美国 | 皮克斯 | 迪士尼 | 2016 | 喜剧 | 冒险 | 家庭

简  介  

  患有短期健忘症的多莉(艾伦·德杰尼勒斯 Ellen DeGeneres 配音)曾经也拥有美好的家庭,然而一连串的意外让她与和蔼可亲的父母失散。此去经年,多莉邂逅了小丑鱼父子马林(艾伯特·布鲁克斯 Albert Brooks 配音)和尼莫(海登·罗兰斯 Hayden Rolence 配音),与他们经历了前所未有的大冒险。平静的日子里,童年时期的片段记忆突然闯入多莉的脑海,于是她再度踏上寻找父母的旅程。这一次,她来到了海洋生物博物馆,遇到了不打算回到大海的章鱼汉克(艾德·奥尼尔 Ed O'Neill 配音)以及童年时的朋友鲸鲨运儿(凯特琳·奥尔森 Kaitlin Olson 配音)。循着记忆中的蛛丝马迹,她离父母越来越近。然而在这一过程中,她又和马林父子失散了。
  对友情、亲情的执着,让这群小家伙无论千难万险也要坚持到底……

获奖情况  

  第70届英国电影学院奖(2017)
  电影奖 最佳动画片(提名) 安德鲁·斯坦顿

  第44届动画安妮奖(2017)
  最佳动画长片(提名)
  最佳分镜(提名)
  最佳动画角色(提名)

  第28届美国制片人工会奖(2017)
  最佳动画片制片人奖(提名)

  第15届美国视觉效果协会奖(2017)
  最佳动画电影视觉效果(提名)
  最佳动画电影CG动画角色
  最佳动画电影CG背景(提名)
  最佳动画电影模拟动画效果(提名)

  第53届美国声音效果协会奖(2017)
  动画电影最佳音效

  第22届美国评论家选择电影奖(2017)
  最佳动画片(提名)

  第21届金卫星奖(2017)
  电影部门 最佳动画片(提名)

  第15届华盛顿影评人协会奖(2016)
  最佳动画片(提名)
  最佳配音(提名) 艾伦·德杰尼勒斯

  第20届美国在线影评人协会奖(2017)
  最佳动画片(提名)
  1. Video
  2. ID                                       : 1
  3. Format                                   : AVC
  4. Format/Info                              : Advanced Video Codec
  5. Format profile                           : <a href="/cdn-cgi/l/email-protection" class="__cf_email__" data-cfemail="5018393738101c657e61">[email protected]</a>
  6. Format settings                          : CABAC / 5 Ref Frames
  7. Format settings, CABAC                   : Yes
  8. Format settings, Reference frames        : 5 frames
  9. Codec ID                                 : V_MPEG4/ISO/AVC
  10. Duration                                 : 1 h 37 min
  11. Bit rate                                 : 26.7 Mb/s
  12. Width                                    : 3 840 pixels
  13. Height                                   : 2 160 pixels
  14. Display aspect ratio                     : 16:9
  15. Frame rate mode                          : Constant
  16. Frame rate                               : 23.976 (24000/1001) FPS
  17. Color space                              : YUV
  18. Chroma subsampling                       : 4:2:0
  19. Bit depth                                : 8 bits
  20. Scan type                                : Progressive
  21. Bits/(Pixel*Frame)                       : 0.134
  22. Stream size                              : 18.1 GiB (80%)
  23. Title                                    : Finding.Dory.2016.2160p.BluRay.x264.8bit.SDR.TrueHD.7.1.Atmos-SWTYBLZ
  24. Writing library                          : x264 core 157 r2935 545de2f
  25. Encoding settings                        : cabac=1 / ref=5 / deblock=1:1:1 / analyse=0x3:0x113 / me=umh / subme=10 / psy=1 / psy_rd=0.40:0.00 / mixed_ref=1 / me_range=48 / chroma_me=1 / trellis=2 / 8x8dct=1 / cqm=0 / deadzone=21,11 / fast_pskip=1 / chroma_qp_offset=-2 / threads=48 / lookahead_threads=5 / sliced_threads=0 / nr=0 / decimate=0 / interlaced=0 / bluray_compat=0 / constrained_intra=0 / bframes=5 / b_pyramid=2 / b_adapt=2 / b_bias=0 / direct=3 / weightb=1 / open_gop=0 / weightp=2 / keyint=250 / keyint_min=23 / scenecut=40 / intra_refresh=0 / rc_lookahead=50 / rc=crf / mbtree=1 / crf=18.0 / qcomp=0.60 / qpmin=0 / qpmax=69 / qpstep=4 / ip_ratio=1.40 / aq=1:0.60
  26. Default                                  : Yes
  27. Forced                                   : No

  28. Audio #1
  29. ID                                       : 2
  30. Format                                   : MLP FBA 16-ch
  31. Format/Info                              : Meridian Lossless Packing FBA with 16-channel presentation
  32. Commercial name                          : Dolby TrueHD with Dolby Atmos
  33. Codec ID                                 : A_TRUEHD
  34. Duration                                 : 1 h 37 min
  35. Bit rate mode                            : Variable
  36. Bit rate                                 : 6 046 kb/s
  37. Maximum bit rate                         : 7 845 kb/s
  38. Channel(s)                               : 8 channels
  39. Channel layout                           : L R C LFE Ls Rs Lb Rb
  40. Sampling rate                            : 48.0 kHz
  41. Frame rate                               : 1 200.000 FPS (40 SPF)
  42. Compression mode                         : Lossless
  43. Stream size                              : 4.10 GiB (18%)
  44. Title                                    : Finding.Dory.2016.2160p.BluRay.x264.8bit.SDR.TrueHD.7.1.Atmos-SWTYBLZ
  45. Language                                 : English
  46. Default                                  : Yes
  47. Forced                                   : No
  48. Number of dynamic objects                : 13
  49. Bed channel count                        : 1 channel
  50. Bed channel configuration                : LFE

  51. Audio #2
  52. ID                                       : 3
  53. Format                                   : AC-3
  54. Format/Info                              : Audio Coding 3
  55. Commercial name                          : Dolby Digital
  56. Codec ID                                 : A_AC3
  57. Duration                                 : 1 h 37 min
  58. Bit rate mode                            : Constant
  59. Bit rate                                 : 640 kb/s
  60. Channel(s)                               : 6 channels
  61. Channel layout                           : L R C LFE Ls Rs
  62. Sampling rate                            : 48.0 kHz
  63. Frame rate                               : 31.250 FPS (1536 SPF)
  64. Bit depth                                : 16 bits
  65. Compression mode                         : Lossy
  66. Stream size                              : 444 MiB (2%)
  67. Title                                    : Finding.Dory.2016.2160p.BluRay.x264.8bit.SDR.TrueHD.7.1.Atmos-SWTYBLZ
  68. Language                                 : English
  69. Service kind                             : Complete Main
  70. Default                                  : No
  71. Forced                                   : No

  72. Text #1
  73. ID                                       : 4
  74. Format                                   : UTF-8
  75. Codec ID                                 : S_TEXT/UTF8
  76. Codec ID/Info                            : UTF-8 Plain Text
  77. Duration                                 : 1 h 35 min
  78. Bit rate                                 : 85 b/s
  79. Count of elements                        : 1571
  80. Stream size                              : 59.5 KiB (0%)
  81. Title                                    : English-SRT
  82. Language                                 : English
  83. Default                                  : Yes
  84. Forced                                   : No

  85. Text #2
  86. ID                                       : 5
  87. Format                                   : PGS
  88. Muxing mode                              : zlib
  89. Codec ID                                 : S_HDMV/PGS
  90. Codec ID/Info                            : Picture based subtitle format used on BDs/HD-DVDs
  91. Duration                                 : 1 h 35 min
  92. Bit rate                                 : 58.0 kb/s
  93. Count of elements                        : 3528
  94. Stream size                              : 39.5 MiB (0%)
  95. Title                                    : English-PGS
  96. Language                                 : English
  97. Default                                  : No
  98. Forced                                   : No

  99. Text #3
  100. ID                                       : 6
  101. Format                                   : PGS
  102. Muxing mode                              : zlib
  103. Codec ID                                 : S_HDMV/PGS
  104. Codec ID/Info                            : Picture based subtitle format used on BDs/HD-DVDs
  105. Duration                                 : 1 h 35 min
  106. Bit rate                                 : 47.0 kb/s
  107. Count of elements                        : 2948
  108. Stream size                              : 32.0 MiB (0%)
  109. Title                                    : French-PGS
  110. Language                                 : French
  111. Default                                  : No
  112. Forced                                   : No

  113. Text #4
  114. ID                                       : 7
  115. Format                                   : PGS
  116. Muxing mode                              : zlib
  117. Codec ID                                 : S_HDMV/PGS
  118. Codec ID/Info                            : Picture based subtitle format used on BDs/HD-DVDs
  119. Duration                                 : 1 h 35 min
  120. Bit rate                                 : 48.2 kb/s
  121. Count of elements                        : 2902
  122. Stream size                              : 32.8 MiB (0%)
  123. Title                                    : Spanish-PGS
  124. Language                                 : Spanish
  125. Default                                  : No
  126. Forced                                   : No

  127. Menu
  128. 00:00:00.000                             : en:Chapter 01
  129. 00:02:35.738                             : en:Chapter 02
  130. 00:06:50.159                             : en:Chapter 03
  131. 00:10:53.152                             : en:Chapter 04
  132. 00:13:32.937                             : en:Chapter 05
  133. 00:15:25.007                             : en:Chapter 06
  134. 00:17:03.022                             : en:Chapter 07
  135. 00:19:35.465                             : en:Chapter 08
  136. 00:21:35.294                             : en:Chapter 09
  137. 00:24:58.413                             : en:Chapter 10
  138. 00:27:08.376                             : en:Chapter 11
  139. 00:30:33.206                             : en:Chapter 12
  140. 00:35:00.056                             : en:Chapter 13
  141. 00:37:52.019                             : en:Chapter 14
  142. 00:40:17.998                             : en:Chapter 15
  143. 00:41:06.297                             : en:Chapter 16
  144. 00:42:30.422                             : en:Chapter 17
  145. 00:46:03.427                             : en:Chapter 18
  146. 00:48:41.585                             : en:Chapter 19
  147. 00:50:27.858                             : en:Chapter 20
  148. 00:55:06.344                             : en:Chapter 21
  149. 00:57:05.839                             : en:Chapter 22
  150. 01:00:41.346                             : en:Chapter 23
  151. 01:04:32.910                             : en:Chapter 24
  152. 01:10:36.732                             : en:Chapter 25
  153. 01:12:28.218                             : en:Chapter 26
  154. 01:14:09.862                             : en:Chapter 27
  155. 01:18:26.493                             : en:Chapter 28
  156. 01:26:49.329                             : en:Chapter 29
复制代码

a7c0c4d33410b.png 海底总动员2:多莉去哪儿/寻找多莉 Finding.Dory.2016.2160p.BluRay.x264.8bit.SDR.TrueHD.7.1.Atmos-SWTYBLZ 22.74GB-3.png 海底总动员2:多莉去哪儿/寻找多莉 Finding.Dory.2016.2160p.BluRay.x264.8bit.SDR.TrueHD.7.1.Atmos-SWTYBLZ 22.74GB-4.png 海底总动员2:多莉去哪儿/寻找多莉 Finding.Dory.2016.2160p.BluRay.x264.8bit.SDR.TrueHD.7.1.Atmos-SWTYBLZ 22.74GB-5.png 海底总动员2:多莉去哪儿/寻找多莉 Finding.Dory.2016.2160p.BluRay.x264.8bit.SDR.TrueHD.7.1.Atmos-SWTYBLZ 22.74GB-6.png 海底总动员2:多莉去哪儿/寻找多莉 Finding.Dory.2016.2160p.BluRay.x264.8bit.SDR.TrueHD.7.1.Atmos-SWTYBLZ 22.74GB-7.png 海底总动员2:多莉去哪儿/寻找多莉 Finding.Dory.2016.2160p.BluRay.x264.8bit.SDR.TrueHD.7.1.Atmos-SWTYBLZ 22.74GB-8.png






开通VIP免费下载本站所有资源---点这里
新手必看:资源下载、资源播放、字幕使用、等常见问题---点这里
回复

使用道具 举报

懒得打字嘛,点击右侧快捷回复 【右侧内容,后台自定义】
您需要登录后才可以回帖 登录 | 立即加入

本版积分规则

现在加入蓝光电影网,注册一个账号

QQ| 手机版|小黑屋| 蓝光电影网 |网站地图

Copyright © 2015-2019 Comsenz Inc.  Template by 蓝光电影网 All Rights Reserved.

Powered by 蓝光电影网 X3.4

特别声明:本站所有资源均由网上收集而来,版权归原影音公司所有,如果侵犯了你的权益,请通知我们,我们会及时删除侵权内容.

快速回复 返回顶部 返回列表