找回密码

蓝光电影网

查看: 93|回复: 2

[10bit.SDR] 海底总动员2:多莉去哪儿/寻找多莉 Finding.Dory.2016.2160p.BluRay.x265.10bit.SDR.TrueHD.7.1.Atmos-SWTYBLZ 22.34GB

[复制链接]

 成长值: 1345

发表于 2019-9-8 14:09:29 | 显示全部楼层 |阅读模式
海底总动员2:多莉去哪儿/寻找多莉 Finding.Dory.2016.2160p.BluRay.x265.10bit.SDR.TrueHD.7.1.Atmos-SWTYBLZ 22.34GB-1.png

译  名 海底总动员2:多莉去哪儿 / 寻找多莉 / 海底奇兵2(港) / 海底总动员2:寻找多莉
片  名 Finding Dory
年  代 2016
产  地 美国
类  别 喜剧 / 动画 / 家庭 / 冒险
语  言 英语
上映日期 2016-06-17(中国大陆/美国)
IMDb评分  7.3/10 from 217794 users
IMDb链接  http://www.imdb.com/title/tt2277860
豆瓣评分 7.4/10 from 77818 users
豆瓣链接 https://movie.douban.com/subject/11524967/
片  长 97分钟
导  演 安德鲁·斯坦顿 Andrew Stanton / 安格斯·麦克莱恩 Angus MacLane
编  剧 安德鲁·斯坦顿 Andrew Stanton / 维多利亚·斯特劳斯 Victoria Strouse / 鲍勃·彼德森 Bob Peterson
主  演 艾伦·德杰尼勒斯 Ellen DeGeneres
       艾伯特·布鲁克斯 Albert Brooks
       艾德·奥尼尔 Ed O'Neill
       凯特琳·奥尔森 Kaitlin Olson
       海登·罗兰斯 Hayden Rolence
       泰·布利尔 Ty Burrell
       黛安·基顿 Diane Keaton
       尤金·列维 Eugene Levy
       斯隆·穆雷 Sloane Murray
       伊德里斯·艾尔巴 Idris Elba
       多米尼克·威斯特 Dominic West
       鲍勃·彼德森 Bob Peterson
       凯特·麦克金农 Kate McKinnon
       比尔·哈德尔 Bill Hader
       西格妮·韦弗 Sigourney Weaver


标  签 动画 | 美国 | 皮克斯 | 迪士尼 | 2016 | 喜剧 | 冒险 | 家庭

简  介  

  患有短期健忘症的多莉(艾伦·德杰尼勒斯 Ellen DeGeneres 配音)曾经也拥有美好的家庭,然而一连串的意外让她与和蔼可亲的父母失散。此去经年,多莉邂逅了小丑鱼父子马林(艾伯特·布鲁克斯 Albert Brooks 配音)和尼莫(海登·罗兰斯 Hayden Rolence 配音),与他们经历了前所未有的大冒险。平静的日子里,童年时期的片段记忆突然闯入多莉的脑海,于是她再度踏上寻找父母的旅程。这一次,她来到了海洋生物博物馆,遇到了不打算回到大海的章鱼汉克(艾德·奥尼尔 Ed O'Neill 配音)以及童年时的朋友鲸鲨运儿(凯特琳·奥尔森 Kaitlin Olson 配音)。循着记忆中的蛛丝马迹,她离父母越来越近。然而在这一过程中,她又和马林父子失散了。
  对友情、亲情的执着,让这群小家伙无论千难万险也要坚持到底……

获奖情况  

  第70届英国电影学院奖(2017)
  电影奖 最佳动画片(提名) 安德鲁·斯坦顿

  第44届动画安妮奖(2017)
  最佳动画长片(提名)
  最佳分镜(提名)
  最佳动画角色(提名)

  第28届美国制片人工会奖(2017)
  最佳动画片制片人奖(提名)

  第15届美国视觉效果协会奖(2017)
  最佳动画电影视觉效果(提名)
  最佳动画电影CG动画角色
  最佳动画电影CG背景(提名)
  最佳动画电影模拟动画效果(提名)

  第53届美国声音效果协会奖(2017)
  动画电影最佳音效

  第22届美国评论家选择电影奖(2017)
  最佳动画片(提名)

  第21届金卫星奖(2017)
  电影部门 最佳动画片(提名)

  第15届华盛顿影评人协会奖(2016)
  最佳动画片(提名)
  最佳配音(提名) 艾伦·德杰尼勒斯

  第20届美国在线影评人协会奖(2017)
  最佳动画片(提名)
  1. Video
  2. ID                                       : 1
  3. Format                                   : HEVC
  4. Format/Info                              : High Efficiency Video Coding
  5. Format profile                           : Main <a href="/cdn-cgi/l/email-protection" class="__cf_email__" data-cfemail="0d3c3d4d4138233c">[email protected]</a>@High
  6. Codec ID                                 : V_MPEGH/ISO/HEVC
  7. Duration                                 : 1 h 37 min
  8. Bit rate                                 : 26.0 Mb/s
  9. Width                                    : 3 840 pixels
  10. Height                                   : 2 160 pixels
  11. Display aspect ratio                     : 16:9
  12. Frame rate mode                          : Constant
  13. Frame rate                               : 23.976 (24000/1001) FPS
  14. Color space                              : YUV
  15. Chroma subsampling                       : 4:2:0
  16. Bit depth                                : 10 bits
  17. Bits/(Pixel*Frame)                       : 0.131
  18. Stream size                              : 17.7 GiB (79%)
  19. Title                                    : Finding.Dory.2016.2160p.BluRay.x265.10bit.SDR.TrueHD.7.1.Atmos-SWTYBLZ
  20. Writing library                          : x265 3.0ed72af837053:[Windows][GCC 8.2.0][64 bit] 10bit
  21. Encoding settings                        : cpuid=1111039 / frame-threads=16 / numa-pools=44,44 / wpp / no-pmode / no-pme / no-psnr / no-ssim / log-level=2 / input-csp=1 / input-res=3840x2160 / interlace=0 / total-frames=139608 / level-idc=51 / high-tier=1 / uhd-bd=0 / ref=3 / no-allow-non-conformance / repeat-headers / annexb / aud / hrd / info / hash=0 / no-temporal-layers / no-open-gop / min-keyint=1 / keyint=24 / gop-lookahead=0 / bframes=6 / b-adapt=2 / b-pyramid / bframe-bias=0 / rc-lookahead=25 / lookahead-slices=4 / scenecut=40 / radl=0 / no-splice / no-intra-refresh / ctu=64 / min-cu-size=8 / no-rect / no-amp / max-tu-size=32 / tu-inter-depth=1 / tu-intra-depth=1 / limit-tu=0 / rdoq-level=0 / dynamic-rd=0.00 / no-ssim-rd / signhide / no-tskip / nr-intra=0 / nr-inter=0 / no-constrained-intra / strong-intra-smoothing / max-merge=2 / limit-refs=3 / no-limit-modes / me=1 / subme=2 / merange=57 / temporal-mvp / weightp / no-weightb / no-analyze-src-pics / deblock=1:1 / no-sao / no-sao-non-deblock / rd=3 / no-early-skip / rskip / no-fast-intra / no-tskip-fast / no-cu-lossless / no-b-intra / no-splitrd-skip / rdpenalty=0 / psy-rd=0.40 / psy-rdoq=0.00 / no-rd-refine / no-lossless / cbqpoffs=0 / crqpoffs=0 / rc=crf / crf=16.0 / qcomp=0.60 / qpstep=4 / stats-write=0 / stats-read=0 / vbv-maxrate=160000 / vbv-bufsize=160000 / vbv-init=0.9 / crf-max=0.0 / crf-min=0.0 / ipratio=1.40 / pbratio=1.30 / aq-mode=1 / aq-strength=0.40 / cutree / zone-count=0 / no-strict-cbr / qg-size=32 / no-rc-grain / qpmax=69 / qpmin=0 / no-const-vbv / sar=1 / overscan=0 / videoformat=5 / range=0 / colorprim=2 / transfer=2 / colormatrix=2 / chromaloc=0 / display-window=0 / max-cll=0,0 / min-luma=0 / max-luma=1023 / log2-max-poc-lsb=8 / vui-timing-info / vui-hrd-info / slices=1 / opt-qp-pps / opt-ref-list-length-pps / no-multi-pass-opt-rps / scenecut-bias=0.05 / no-opt-cu-delta-qp / no-aq-motion / no-hdr / no-hdr-opt / no-dhdr10-opt / no-idr-recovery-sei / analysis-reuse-level=5 / scale-factor=0 / refine-intra=0 / refine-inter=0 / refine-mv=0 / refine-ctu-distortion=0 / no-limit-sao / ctu-info=0 / no-lowpass-dct / refine-analysis-type=0 / copy-pic=1 / max-ausize-factor=1.0 / no-dynamic-refine / no-single-sei / no-hevc-aq / qp-adaptation-range=1.00
  22. Default                                  : Yes
  23. Forced                                   : No

  24. Audio #1
  25. ID                                       : 2
  26. Format                                   : MLP FBA 16-ch
  27. Format/Info                              : Meridian Lossless Packing FBA with 16-channel presentation
  28. Commercial name                          : Dolby TrueHD with Dolby Atmos
  29. Codec ID                                 : A_TRUEHD
  30. Duration                                 : 1 h 37 min
  31. Bit rate mode                            : Variable
  32. Bit rate                                 : 6 046 kb/s
  33. Maximum bit rate                         : 7 845 kb/s
  34. Channel(s)                               : 8 channels
  35. Channel layout                           : L R C LFE Ls Rs Lb Rb
  36. Sampling rate                            : 48.0 kHz
  37. Frame rate                               : 1 200.000 FPS (40 SPF)
  38. Compression mode                         : Lossless
  39. Stream size                              : 4.10 GiB (18%)
  40. Title                                    : Finding.Dory.2016.2160p.BluRay.x265.10bit.SDR.TrueHD.7.1.Atmos-SWTYBLZ
  41. Language                                 : English
  42. Default                                  : Yes
  43. Forced                                   : No
  44. Number of dynamic objects                : 13
  45. Bed channel count                        : 1 channel
  46. Bed channel configuration                : LFE

  47. Audio #2
  48. ID                                       : 3
  49. Format                                   : AC-3
  50. Format/Info                              : Audio Coding 3
  51. Commercial name                          : Dolby Digital
  52. Codec ID                                 : A_AC3
  53. Duration                                 : 1 h 37 min
  54. Bit rate mode                            : Constant
  55. Bit rate                                 : 640 kb/s
  56. Channel(s)                               : 6 channels
  57. Channel layout                           : L R C LFE Ls Rs
  58. Sampling rate                            : 48.0 kHz
  59. Frame rate                               : 31.250 FPS (1536 SPF)
  60. Bit depth                                : 16 bits
  61. Compression mode                         : Lossy
  62. Stream size                              : 444 MiB (2%)
  63. Title                                    : Finding.Dory.2016.2160p.BluRay.x265.10bit.SDR.TrueHD.7.1.Atmos-SWTYBLZ
  64. Language                                 : English
  65. Service kind                             : Complete Main
  66. Default                                  : No
  67. Forced                                   : No

  68. Text #1
  69. ID                                       : 4
  70. Format                                   : UTF-8
  71. Codec ID                                 : S_TEXT/UTF8
  72. Codec ID/Info                            : UTF-8 Plain Text
  73. Duration                                 : 1 h 35 min
  74. Bit rate                                 : 85 b/s
  75. Count of elements                        : 1571
  76. Stream size                              : 59.5 KiB (0%)
  77. Title                                    : English-SRT
  78. Language                                 : English
  79. Default                                  : Yes
  80. Forced                                   : No

  81. Text #2
  82. ID                                       : 5
  83. Format                                   : PGS
  84. Muxing mode                              : zlib
  85. Codec ID                                 : S_HDMV/PGS
  86. Codec ID/Info                            : Picture based subtitle format used on BDs/HD-DVDs
  87. Duration                                 : 1 h 35 min
  88. Bit rate                                 : 58.0 kb/s
  89. Count of elements                        : 3528
  90. Stream size                              : 39.5 MiB (0%)
  91. Title                                    : English-PGS
  92. Language                                 : English
  93. Default                                  : No
  94. Forced                                   : No

  95. Text #3
  96. ID                                       : 6
  97. Format                                   : PGS
  98. Muxing mode                              : zlib
  99. Codec ID                                 : S_HDMV/PGS
  100. Codec ID/Info                            : Picture based subtitle format used on BDs/HD-DVDs
  101. Duration                                 : 1 h 35 min
  102. Bit rate                                 : 47.0 kb/s
  103. Count of elements                        : 2948
  104. Stream size                              : 32.0 MiB (0%)
  105. Title                                    : French-PGS
  106. Language                                 : French
  107. Default                                  : No
  108. Forced                                   : No

  109. Text #4
  110. ID                                       : 7
  111. Format                                   : PGS
  112. Muxing mode                              : zlib
  113. Codec ID                                 : S_HDMV/PGS
  114. Codec ID/Info                            : Picture based subtitle format used on BDs/HD-DVDs
  115. Duration                                 : 1 h 35 min
  116. Bit rate                                 : 48.2 kb/s
  117. Count of elements                        : 2902
  118. Stream size                              : 32.8 MiB (0%)
  119. Title                                    : Spanish-PGS
  120. Language                                 : Spanish
  121. Default                                  : No
  122. Forced                                   : No

  123. Menu
  124. 00:00:00.000                             : en:Chapter 01
  125. 00:02:35.738                             : en:Chapter 02
  126. 00:06:50.159                             : en:Chapter 03
  127. 00:10:53.152                             : en:Chapter 04
  128. 00:13:32.937                             : en:Chapter 05
  129. 00:15:25.007                             : en:Chapter 06
  130. 00:17:03.022                             : en:Chapter 07
  131. 00:19:35.465                             : en:Chapter 08
  132. 00:21:35.294                             : en:Chapter 09
  133. 00:24:58.413                             : en:Chapter 10
  134. 00:27:08.376                             : en:Chapter 11
  135. 00:30:33.206                             : en:Chapter 12
  136. 00:35:00.056                             : en:Chapter 13
  137. 00:37:52.019                             : en:Chapter 14
  138. 00:40:17.998                             : en:Chapter 15
  139. 00:41:06.297                             : en:Chapter 16
  140. 00:42:30.422                             : en:Chapter 17
  141. 00:46:03.427                             : en:Chapter 18
  142. 00:48:41.585                             : en:Chapter 19
  143. 00:50:27.858                             : en:Chapter 20
  144. 00:55:06.344                             : en:Chapter 21
  145. 00:57:05.839                             : en:Chapter 22
  146. 01:00:41.346                             : en:Chapter 23
  147. 01:04:32.910                             : en:Chapter 24
  148. 01:10:36.732                             : en:Chapter 25
  149. 01:12:28.218                             : en:Chapter 26
  150. 01:14:09.862                             : en:Chapter 27
  151. 01:18:26.493                             : en:Chapter 28
  152. 01:26:49.329                             : en:Chapter 29
复制代码

海底总动员2:多莉去哪儿/寻找多莉 Finding.Dory.2016.2160p.BluRay.x265.10bit.SDR.TrueHD.7.1.Atmos-SWTYBLZ 22.34GB-2.png 海底总动员2:多莉去哪儿/寻找多莉 Finding.Dory.2016.2160p.BluRay.x265.10bit.SDR.TrueHD.7.1.Atmos-SWTYBLZ 22.34GB-3.png 海底总动员2:多莉去哪儿/寻找多莉 Finding.Dory.2016.2160p.BluRay.x265.10bit.SDR.TrueHD.7.1.Atmos-SWTYBLZ 22.34GB-4.png 海底总动员2:多莉去哪儿/寻找多莉 Finding.Dory.2016.2160p.BluRay.x265.10bit.SDR.TrueHD.7.1.Atmos-SWTYBLZ 22.34GB-5.png 海底总动员2:多莉去哪儿/寻找多莉 Finding.Dory.2016.2160p.BluRay.x265.10bit.SDR.TrueHD.7.1.Atmos-SWTYBLZ 22.34GB-6.png 海底总动员2:多莉去哪儿/寻找多莉 Finding.Dory.2016.2160p.BluRay.x265.10bit.SDR.TrueHD.7.1.Atmos-SWTYBLZ 22.34GB-7.png 海底总动员2:多莉去哪儿/寻找多莉 Finding.Dory.2016.2160p.BluRay.x265.10bit.SDR.TrueHD.7.1.Atmos-SWTYBLZ 22.34GB-8.png






开通VIP免费下载本站所有资源---点这里
新手必看:资源下载、资源播放、字幕使用、等常见问题---点这里
回复

使用道具 举报

发表于 7 天前 | 显示全部楼层
谢谢楼主无私分享!!
开通VIP免费下载本站所有资源---点这里
新手必看:资源下载、资源播放、字幕使用、等常见问题---点这里
回复 支持 反对

使用道具 举报

发表于 6 天前 | 显示全部楼层

这个帖子不回对不起自己!我想我是一天也不能离开蓝光电影网
开通VIP免费下载本站所有资源---点这里
新手必看:资源下载、资源播放、字幕使用、等常见问题---点这里
回复 支持 反对

使用道具 举报

懒得打字嘛,点击右侧快捷回复 【右侧内容,后台自定义】
您需要登录后才可以回帖 登录 | 立即加入

本版积分规则

现在加入蓝光电影网,注册一个账号

QQ| 手机版|小黑屋| 蓝光电影网 |网站地图

Copyright © 2015-2019 Comsenz Inc.  Template by 蓝光电影网 All Rights Reserved.

Powered by 蓝光电影网 X3.4

特别声明:本站所有资源均由网上收集而来,版权归原影音公司所有,如果侵犯了你的权益,请通知我们,我们会及时删除侵权内容.

快速回复 返回顶部 返回列表