找回密码

蓝光电影网

查看: 165|回复: 5

[10bit.SDR] 热血警探 Hot.Fuzz.2007.2160p.BluRay.x265.10bit.SDR.DTS-X.7.1-SWTYBLZ 39.84GB

[复制链接]

 成长值: 1345

发表于 2019-9-7 19:29:30 | 显示全部楼层 |阅读模式
热血警探 Hot.Fuzz.2007.2160p.BluRay.x265.10bit.SDR.DTS-X.7.1-SWTYBLZ 39.84GB-1.png

译  名 热血警探 / Blue Fury / Bubblin' Fizz / Dead Right / Feelin' Fuzzier / Raging Fuzz / 热血条子 / 硬派条子 / 硬派雷子 / 终棘警探
片  名 Hot Fuzz
年  代 2007
产  地 美国 / 法国 / 英国
类  别 喜剧 / 动作
语  言 英语
上映日期 2007-02-14(英国)
IMDb评分  7.8/10 from 430933 users
IMDb链接  http://www.imdb.com/title/tt0425112
豆瓣评分 8.3/10 from 110514 users
豆瓣链接 https://movie.douban.com/subject/1806555/
片  长 121分钟
导  演 埃德加·赖特 Edgar Wright
编  剧 埃德加·赖特 Edgar Wright / 西蒙·佩吉 Simon Pegg
主  演 西蒙·佩吉 Simon Pegg
       尼克·弗罗斯特 Nick Frost
       马丁·弗瑞曼 Martin Freeman
       比尔·奈伊 Bill Nighy
       提摩西·道尔顿 Timothy Dalton
       吉姆·布劳德本特 Jim Broadbent
       Robert Popper
       乔·考尼什 Joe Cornish
       Chris Waitt
       比莉·怀特劳 Billie Whitelaw
       彼得·怀特 Peter Wight
       朱丽亚·迪金 Julia Deakin
       比尔·贝利 Bill Bailey
       保罗·弗里曼 Paul Freeman
       伊丽莎白·埃尔文 Elizabeth Elvin
       斯图亚特·维尔森 Stuart Wilson
       帕迪·康斯戴恩 Paddy Considine
       拉菲·斯波 Rafe Spall
       凯文·埃尔登 Kevin Eldon
       卡尔·约翰逊 Karl Johnson
       Sampson
       奥利维娅·科尔曼 Olivia Colman
       爱德华·伍德华德 Edward Woodward
       安妮·雷德 Anne Reid
       肯尼思·库兰汉姆 Kenneth Cranham
       亚当·布克斯顿 Adam Buxton
       斯戴芬·莫昌特 Stephen Merchant
       蒂姆·巴洛 Tim Barlow
       罗伊·麦克凯恩 Rory McCann
       爱丽丝·洛维 Alice Lowe
       罗恩·库克 Ron Cook
       大卫·斯瑞弗 David Threlfall
       露茜·彭奇 Lucy Punch
       大卫·布拉德利 David Bradley
       Maria Charles
       凯特·布兰切特 Cate Blanchett
       史蒂夫·库根 Steve Coogan
       大卫·威廉·詹姆斯·埃利奥特 David William James Elliott
       彼得·杰克逊 Peter Jackson
       加斯·詹宁斯 Garth Jennings
       约瑟夫·麦克曼纳斯 Joseph McManners
       Joel Stubbs
       埃德加·赖特 Edgar Wright


标  签 黑色幽默 | 英国 | 喜剧 | 动作 | 警匪 | 英国电影 | SimonPegg | 2007

简  介  

  尼古拉斯?安奇尔(西蒙?佩吉Simon Pegg 饰)在伦敦担任高级巡警,抓贼破案似乎是他最大的乐趣。为此他成为警局中最敬业最能干的警员。但这却招致了警长的妒嫉,可怜的尼古拉斯被调至一个偏僻平静的小镇当警察。
  小镇已经几十年没有过恶性犯罪事件。尼古拉斯在那里过得相当郁闷 ,他觉得自己的擒贼本领没有施展空间。更令他烦恼的是,镇里警察局局长儿子丹尼?巴特曼(尼克?弗罗斯特 Nick Frost 饰)也来凑热闹,成为他的搭档。这个新搭档麻烦至极,整天询问大城市的警员经历。正在尼古拉斯烦心于镇里鸡毛蒜皮的事务和身边的苯搭档时,镇里却发生了一桩案件,让尼古拉斯嗅到了大展拳脚的机会,惊心动魄的战役开始了。
  1. Video
  2. ID                                       : 1
  3. Format                                   : HEVC
  4. Format/Info                              : High Efficiency Video Coding
  5. Format profile                           : Main <a href="/cdn-cgi/l/email-protection" class="__cf_email__" data-cfemail="4475740408716a75">[email protected]</a>@High
  6. Codec ID                                 : V_MPEGH/ISO/HEVC
  7. Duration                                 : 2 h 0 min
  8. Bit rate                                 : 40.3 Mb/s
  9. Width                                    : 3 840 pixels
  10. Height                                   : 1 634 pixels
  11. Display aspect ratio                     : 2.35:1
  12. Frame rate mode                          : Constant
  13. Frame rate                               : 23.976 (24000/1001) FPS
  14. Color space                              : YUV
  15. Chroma subsampling                       : 4:2:0
  16. Bit depth                                : 10 bits
  17. Bits/(Pixel*Frame)                       : 0.268
  18. Stream size                              : 34.0 GiB (86%)
  19. Title                                    : Hot.Fuzz.2007.2160p.BluRay.x265.10bit.SDR.DTS-X.7.1-SWTYBLZ
  20. Writing library                          : x265 3.0ed72af837053:[Windows][GCC 8.2.0][64 bit] 10bit
  21. Encoding settings                        : cpuid=1111039 / frame-threads=16 / numa-pools=24,24,24,24 / wpp / no-pmode / no-pme / no-psnr / no-ssim / log-level=2 / input-csp=1 / input-res=3840x1634 / interlace=0 / total-frames=173802 / level-idc=51 / high-tier=1 / uhd-bd=0 / ref=3 / no-allow-non-conformance / repeat-headers / annexb / aud / hrd / info / hash=0 / no-temporal-layers / no-open-gop / min-keyint=1 / keyint=24 / gop-lookahead=0 / bframes=4 / b-adapt=2 / b-pyramid / bframe-bias=0 / rc-lookahead=25 / lookahead-slices=4 / scenecut=40 / radl=0 / no-splice / no-intra-refresh / ctu=64 / min-cu-size=8 / no-rect / no-amp / max-tu-size=32 / tu-inter-depth=1 / tu-intra-depth=1 / limit-tu=0 / rdoq-level=0 / dynamic-rd=0.00 / no-ssim-rd / signhide / no-tskip / nr-intra=0 / nr-inter=0 / no-constrained-intra / strong-intra-smoothing / max-merge=2 / limit-refs=3 / no-limit-modes / me=1 / subme=2 / merange=57 / temporal-mvp / weightp / no-weightb / no-analyze-src-pics / deblock=0:0 / no-sao / no-sao-non-deblock / rd=3 / no-early-skip / rskip / no-fast-intra / no-tskip-fast / no-cu-lossless / no-b-intra / no-splitrd-skip / rdpenalty=0 / psy-rd=2.00 / psy-rdoq=0.00 / no-rd-refine / no-lossless / cbqpoffs=0 / crqpoffs=0 / rc=crf / crf=16.0 / qcomp=0.60 / qpstep=4 / stats-write=0 / stats-read=0 / vbv-maxrate=160000 / vbv-bufsize=160000 / vbv-init=0.9 / crf-max=0.0 / crf-min=0.0 / ipratio=1.40 / pbratio=1.30 / aq-mode=1 / aq-strength=1.00 / cutree / zone-count=0 / no-strict-cbr / qg-size=32 / no-rc-grain / qpmax=69 / qpmin=0 / no-const-vbv / sar=1 / overscan=0 / videoformat=5 / range=0 / colorprim=2 / transfer=2 / colormatrix=2 / chromaloc=0 / display-window=0 / max-cll=0,0 / min-luma=0 / max-luma=1023 / log2-max-poc-lsb=8 / vui-timing-info / vui-hrd-info / slices=1 / opt-qp-pps / opt-ref-list-length-pps / no-multi-pass-opt-rps / scenecut-bias=0.05 / no-opt-cu-delta-qp / no-aq-motion / no-hdr / no-hdr-opt / no-dhdr10-opt / no-idr-recovery-sei / analysis-reuse-level=5 / scale-factor=0 / refine-intra=0 / refine-inter=0 / refine-mv=0 / refine-ctu-distortion=0 / no-limit-sao / ctu-info=0 / no-lowpass-dct / refine-analysis-type=0 / copy-pic=1 / max-ausize-factor=1.0 / no-dynamic-refine / no-single-sei / no-hevc-aq / qp-adaptation-range=1.00
  22. Default                                  : Yes
  23. Forced                                   : No

  24. Audio #1
  25. ID                                       : 2
  26. Format                                   : DTS XLL X
  27. Format/Info                              : Digital Theater Systems
  28. Commercial name                          : DTS-HD Master Audio
  29. Codec ID                                 : A_DTS
  30. Duration                                 : 2 h 0 min
  31. Bit rate mode                            : Variable
  32. Bit rate                                 : 5 998 kb/s
  33. Channel(s)                               : 8 channels
  34. Channel(s)_Original                      : Object Based
  35. Channel layout                           : Object Based
  36. Sampling rate                            : 48.0 kHz
  37. Frame rate                               : 93.750 FPS (512 SPF)
  38. Bit depth                                : 24 bits
  39. Stream size                              : 5.06 GiB (13%)
  40. Title                                    : Hot.Fuzz.2007.2160p.BluRay.x265.10bit.SDR.DTS-X.7.1-SWTYBLZ
  41. Language                                 : English
  42. Default                                  : Yes
  43. Forced                                   : No

  44. Audio #2
  45. ID                                       : 3
  46. Format                                   : AC-3
  47. Format/Info                              : Audio Coding 3
  48. Commercial name                          : Dolby Digital
  49. Codec ID                                 : A_AC3
  50. Duration                                 : 2 h 0 min
  51. Bit rate mode                            : Constant
  52. Bit rate                                 : 640 kb/s
  53. Channel(s)                               : 6 channels
  54. Channel layout                           : L R C LFE Ls Rs
  55. Sampling rate                            : 48.0 kHz
  56. Frame rate                               : 31.250 FPS (1536 SPF)
  57. Bit depth                                : 16 bits
  58. Compression mode                         : Lossy
  59. Stream size                              : 553 MiB (1%)
  60. Title                                    : Hot.Fuzz.2007.2160p.BluRay.x265.10bit.SDR.DTS-X.7.1-SWTYBLZ
  61. Language                                 : English
  62. Service kind                             : Complete Main
  63. Default                                  : No
  64. Forced                                   : No

  65. Text #1
  66. ID                                       : 4
  67. Format                                   : UTF-8
  68. Codec ID                                 : S_TEXT/UTF8
  69. Codec ID/Info                            : UTF-8 Plain Text
  70. Duration                                 : 1 h 54 min
  71. Bit rate                                 : 71 b/s
  72. Count of elements                        : 1867
  73. Stream size                              : 59.7 KiB (0%)
  74. Title                                    : English-SRT
  75. Language                                 : English
  76. Default                                  : Yes
  77. Forced                                   : No

  78. Text #2
  79. ID                                       : 5
  80. Format                                   : PGS
  81. Muxing mode                              : zlib
  82. Codec ID                                 : S_HDMV/PGS
  83. Codec ID/Info                            : Picture based subtitle format used on BDs/HD-DVDs
  84. Duration                                 : 1 h 55 min
  85. Bit rate                                 : 49.2 kb/s
  86. Count of elements                        : 4062
  87. Stream size                              : 40.5 MiB (0%)
  88. Title                                    : English-SDH-PGS
  89. Language                                 : English
  90. Default                                  : No
  91. Forced                                   : No

  92. Text #3
  93. ID                                       : 6
  94. Format                                   : PGS
  95. Muxing mode                              : zlib
  96. Codec ID                                 : S_HDMV/PGS
  97. Codec ID/Info                            : Picture based subtitle format used on BDs/HD-DVDs
  98. Duration                                 : 1 h 59 min
  99. Bit rate                                 : 32.7 kb/s
  100. Count of elements                        : 2876
  101. Stream size                              : 28.0 MiB (0%)
  102. Title                                    : French-PGS
  103. Language                                 : French
  104. Default                                  : No
  105. Forced                                   : No

  106. Text #4
  107. ID                                       : 7
  108. Format                                   : PGS
  109. Muxing mode                              : zlib
  110. Codec ID                                 : S_HDMV/PGS
  111. Codec ID/Info                            : Picture based subtitle format used on BDs/HD-DVDs
  112. Duration                                 : 1 h 54 min
  113. Bit rate                                 : 29.5 kb/s
  114. Count of elements                        : 3276
  115. Stream size                              : 24.1 MiB (0%)
  116. Title                                    : Japanese-PGS
  117. Language                                 : Japanese
  118. Default                                  : No
  119. Forced                                   : No

  120. Text #5
  121. ID                                       : 8
  122. Format                                   : PGS
  123. Muxing mode                              : zlib
  124. Codec ID                                 : S_HDMV/PGS
  125. Codec ID/Info                            : Picture based subtitle format used on BDs/HD-DVDs
  126. Duration                                 : 1 h 59 min
  127. Bit rate                                 : 41.2 kb/s
  128. Count of elements                        : 3112
  129. Stream size                              : 35.3 MiB (0%)
  130. Title                                    : Portuguese-PGS
  131. Language                                 : Portuguese
  132. Default                                  : No
  133. Forced                                   : No

  134. Text #6
  135. ID                                       : 9
  136. Format                                   : PGS
  137. Muxing mode                              : zlib
  138. Codec ID                                 : S_HDMV/PGS
  139. Codec ID/Info                            : Picture based subtitle format used on BDs/HD-DVDs
  140. Duration                                 : 1 h 59 min
  141. Bit rate                                 : 41.7 kb/s
  142. Count of elements                        : 3110
  143. Stream size                              : 35.7 MiB (0%)
  144. Title                                    : Spanish-PGS
  145. Language                                 : Spanish
  146. Default                                  : No
  147. Forced                                   : No

  148. Menu
  149. 00:00:00.000                             : en:Chapter 01
  150. 00:02:25.937                             : en:Chapter 02
  151. 00:05:23.197                             : en:Chapter 03
  152. 00:07:15.435                             : en:Chapter 04
  153. 00:12:09.770                             : en:Chapter 05
  154. 00:14:07.304                             : en:Chapter 06
  155. 00:21:38.964                             : en:Chapter 07
  156. 00:25:47.587                             : en:Chapter 08
  157. 00:28:46.349                             : en:Chapter 09
  158. 00:32:08.217                             : en:Chapter 10
  159. 00:35:27.416                             : en:Chapter 11
  160. 00:39:07.636                             : en:Chapter 12
  161. 00:42:11.862                             : en:Chapter 13
  162. 00:44:55.651                             : en:Chapter 14
  163. 00:49:26.630                             : en:Chapter 15
  164. 00:54:58.295                             : en:Chapter 16
  165. 01:01:44.951                             : en:Chapter 17
  166. 01:09:24.285                             : en:Chapter 18
  167. 01:16:58.572                             : en:Chapter 19
  168. 01:19:14.791                             : en:Chapter 20
  169. 01:28:59.208                             : en:Chapter 21
  170. 01:31:40.119                             : en:Chapter 22
  171. 01:41:13.525                             : en:Chapter 23
  172. 01:45:30.407                             : en:Chapter 24
  173. 01:50:49.017                             : en:Chapter 25
  174. 01:52:01.840                             : en:Chapter 26
  175. 01:53:54.410                             : en:Chapter 27
  176. 01:55:14.449                             : en:Chapter 28
复制代码

热血警探 Hot.Fuzz.2007.2160p.BluRay.x265.10bit.SDR.DTS-X.7.1-SWTYBLZ 39.84GB-2.png 热血警探 Hot.Fuzz.2007.2160p.BluRay.x265.10bit.SDR.DTS-X.7.1-SWTYBLZ 39.84GB-3.png 热血警探 Hot.Fuzz.2007.2160p.BluRay.x265.10bit.SDR.DTS-X.7.1-SWTYBLZ 39.84GB-4.png 热血警探 Hot.Fuzz.2007.2160p.BluRay.x265.10bit.SDR.DTS-X.7.1-SWTYBLZ 39.84GB-5.png 热血警探 Hot.Fuzz.2007.2160p.BluRay.x265.10bit.SDR.DTS-X.7.1-SWTYBLZ 39.84GB-6.png 热血警探 Hot.Fuzz.2007.2160p.BluRay.x265.10bit.SDR.DTS-X.7.1-SWTYBLZ 39.84GB-7.png 热血警探 Hot.Fuzz.2007.2160p.BluRay.x265.10bit.SDR.DTS-X.7.1-SWTYBLZ 39.84GB-8.png






开通VIP免费下载本站所有资源---点这里
新手必看:资源下载、资源播放、字幕使用、等常见问题---点这里
回复

使用道具 举报

发表于 2019-9-8 00:19:22 | 显示全部楼层

楼主,我太崇拜你了!我想我是一天也不能离开蓝光电影网
开通VIP免费下载本站所有资源---点这里
新手必看:资源下载、资源播放、字幕使用、等常见问题---点这里
回复 支持 反对

使用道具 举报

发表于 2019-9-8 02:44:14 | 显示全部楼层
楼主发贴辛苦了,谢谢楼主分享!我觉得蓝光电影网是注册对了!
开通VIP免费下载本站所有资源---点这里
新手必看:资源下载、资源播放、字幕使用、等常见问题---点这里
回复 支持 反对

使用道具 举报

发表于 2019-9-8 08:15:13 | 显示全部楼层
楼主发贴辛苦了,谢谢楼主分享!我觉得蓝光电影网是注册对了!
开通VIP免费下载本站所有资源---点这里
新手必看:资源下载、资源播放、字幕使用、等常见问题---点这里
回复 支持 反对

使用道具 举报

发表于 2019-9-8 09:22:49 | 显示全部楼层

我看不错噢 谢谢楼主!蓝光电影网越来越好!
开通VIP免费下载本站所有资源---点这里
新手必看:资源下载、资源播放、字幕使用、等常见问题---点这里
回复 支持 反对

使用道具 举报

发表于 昨天 14:38 | 显示全部楼层

这东西我收了!谢谢楼主!蓝光电影网真好!
开通VIP免费下载本站所有资源---点这里
新手必看:资源下载、资源播放、字幕使用、等常见问题---点这里
回复 支持 反对

使用道具 举报

懒得打字嘛,点击右侧快捷回复 【右侧内容,后台自定义】
您需要登录后才可以回帖 登录 | 立即加入

本版积分规则

现在加入蓝光电影网,注册一个账号

QQ| 手机版|小黑屋| 蓝光电影网 |网站地图

Copyright © 2015-2019 Comsenz Inc.  Template by 蓝光电影网 All Rights Reserved.

Powered by 蓝光电影网 X3.4

特别声明:本站所有资源均由网上收集而来,版权归原影音公司所有,如果侵犯了你的权益,请通知我们,我们会及时删除侵权内容.

快速回复 返回顶部 返回列表