找回密码

蓝光电影网

查看: 186|回复: 8

[REMUX.HEVC] 海底总动员2:多莉去哪儿/寻找多莉 Finding.Dory.2016.2160p.BluRay.REMUX.HEVC.TrueHD.7.1.Atmos-FGT 38.09GB

[复制链接]

 成长值: 1345

发表于 2019-9-7 19:28:37 | 显示全部楼层 |阅读模式
海底总动员2:多莉去哪儿/寻找多莉 Finding.Dory.2016.2160p.BluRay.REMUX.HEVC.TrueHD.7.1.Atmos-FGT 38.09GB-1.png

译  名 海底总动员2:多莉去哪儿 / 寻找多莉 / 海底奇兵2(港) / 海底总动员2:寻找多莉
片  名 Finding Dory
年  代 2016
产  地 美国
类  别 喜剧 / 动画 / 家庭 / 冒险
语  言 英语
上映日期 2016-06-17(中国大陆/美国)
IMDb评分  7.3/10 from 217794 users
IMDb链接  http://www.imdb.com/title/tt2277860
豆瓣评分 7.4/10 from 77818 users
豆瓣链接 https://movie.douban.com/subject/11524967/
片  长 97分钟
导  演 安德鲁·斯坦顿 Andrew Stanton / 安格斯·麦克莱恩 Angus MacLane
编  剧 安德鲁·斯坦顿 Andrew Stanton / 维多利亚·斯特劳斯 Victoria Strouse / 鲍勃·彼德森 Bob Peterson
主  演 艾伦·德杰尼勒斯 Ellen DeGeneres
       艾伯特·布鲁克斯 Albert Brooks
       艾德·奥尼尔 Ed O'Neill
       凯特琳·奥尔森 Kaitlin Olson
       海登·罗兰斯 Hayden Rolence
       泰·布利尔 Ty Burrell
       黛安·基顿 Diane Keaton
       尤金·列维 Eugene Levy
       斯隆·穆雷 Sloane Murray
       伊德里斯·艾尔巴 Idris Elba
       多米尼克·威斯特 Dominic West
       鲍勃·彼德森 Bob Peterson
       凯特·麦克金农 Kate McKinnon
       比尔·哈德尔 Bill Hader
       西格妮·韦弗 Sigourney Weaver


标  签 动画 | 美国 | 皮克斯 | 迪士尼 | 2016 | 喜剧 | 冒险 | 家庭

简  介  

  患有短期健忘症的多莉(艾伦·德杰尼勒斯 Ellen DeGeneres 配音)曾经也拥有美好的家庭,然而一连串的意外让她与和蔼可亲的父母失散。此去经年,多莉邂逅了小丑鱼父子马林(艾伯特·布鲁克斯 Albert Brooks 配音)和尼莫(海登·罗兰斯 Hayden Rolence 配音),与他们经历了前所未有的大冒险。平静的日子里,童年时期的片段记忆突然闯入多莉的脑海,于是她再度踏上寻找父母的旅程。这一次,她来到了海洋生物博物馆,遇到了不打算回到大海的章鱼汉克(艾德·奥尼尔 Ed O'Neill 配音)以及童年时的朋友鲸鲨运儿(凯特琳·奥尔森 Kaitlin Olson 配音)。循着记忆中的蛛丝马迹,她离父母越来越近。然而在这一过程中,她又和马林父子失散了。
  对友情、亲情的执着,让这群小家伙无论千难万险也要坚持到底……

获奖情况  

  第70届英国电影学院奖(2017)
  电影奖 最佳动画片(提名) 安德鲁·斯坦顿

  第44届动画安妮奖(2017)
  最佳动画长片(提名)
  最佳分镜(提名)
  最佳动画角色(提名)

  第28届美国制片人工会奖(2017)
  最佳动画片制片人奖(提名)

  第15届美国视觉效果协会奖(2017)
  最佳动画电影视觉效果(提名)
  最佳动画电影CG动画角色
  最佳动画电影CG背景(提名)
  最佳动画电影模拟动画效果(提名)

  第53届美国声音效果协会奖(2017)
  动画电影最佳音效

  第22届美国评论家选择电影奖(2017)
  最佳动画片(提名)

  第21届金卫星奖(2017)
  电影部门 最佳动画片(提名)

  第15届华盛顿影评人协会奖(2016)
  最佳动画片(提名)
  最佳配音(提名) 艾伦·德杰尼勒斯

  第20届美国在线影评人协会奖(2017)
  最佳动画片(提名)
  1. Video
  2. ID                                       : 1
  3. Format                                   : HEVC
  4. Format/Info                              : High Efficiency Video Coding
  5. Format profile                           : Main <a href="/cdn-cgi/l/email-protection" class="__cf_email__" data-cfemail="d4e5e49498e1fae5">[email protected]</a>@High
  6. HDR format                               : SMPTE ST 2086, HDR10 compatible
  7. Codec ID                                 : V_MPEGH/ISO/HEVC
  8. Duration                                 : 1 h 37 min
  9. Bit rate                                 : 43.9 Mb/s
  10. Width                                    : 3 840 pixels
  11. Height                                   : 2 160 pixels
  12. Display aspect ratio                     : 16:9
  13. Frame rate mode                          : Constant
  14. Frame rate                               : 23.976 (24000/1001) FPS
  15. Color space                              : YUV
  16. Chroma subsampling                       : 4:2:0 (Type 2)
  17. Bit depth                                : 10 bits
  18. Bits/(Pixel*Frame)                       : 0.221
  19. Stream size                              : 29.8 GiB (78%)
  20. Title                                    : Finding.Dory.2016.2160p.BluRay.REMUX.HEVC.TrueHD.7.1.Atmos-FGT
  21. Writing library                          : ATEME Titan File 3.9.0 (4.9.0.0)        
  22. Language                                 : English
  23. Default                                  : No
  24. Forced                                   : No
  25. Color range                              : Limited
  26. Color primaries                          : BT.2020
  27. Transfer characteristics                 : PQ
  28. Matrix coefficients                      : BT.2020 non-constant
  29. Mastering display color primaries        : Display P3
  30. Mastering display luminance              : min: 0.0000 cd/m2, max: 1000 cd/m2

  31. Audio #1
  32. ID                                       : 2
  33. Format                                   : MLP FBA 16-ch
  34. Format/Info                              : Meridian Lossless Packing FBA with 16-channel presentation
  35. Commercial name                          : Dolby TrueHD with Dolby Atmos
  36. Codec ID                                 : A_TRUEHD
  37. Duration                                 : 1 h 37 min
  38. Bit rate mode                            : Variable
  39. Bit rate                                 : 6 046 kb/s
  40. Maximum bit rate                         : 7 845 kb/s
  41. Channel(s)                               : 8 channels
  42. Channel layout                           : L R C LFE Ls Rs Lb Rb
  43. Sampling rate                            : 48.0 kHz
  44. Frame rate                               : 1 200.000 FPS (40 SPF)
  45. Compression mode                         : Lossless
  46. Stream size                              : 4.10 GiB (11%)
  47. Title                                    : Finding.Dory.2016.2160p.BluRay.REMUX.HEVC.TrueHD.7.1.Atmos-FGT
  48. Language                                 : English
  49. Default                                  : Yes
  50. Forced                                   : No
  51. Number of dynamic objects                : 13
  52. Bed channel count                        : 1 channel
  53. Bed channel configuration                : LFE

  54. Audio #2
  55. ID                                       : 3
  56. Format                                   : AC-3
  57. Format/Info                              : Audio Coding 3
  58. Commercial name                          : Dolby Digital
  59. Codec ID                                 : A_AC3
  60. Duration                                 : 1 h 37 min
  61. Bit rate mode                            : Constant
  62. Bit rate                                 : 640 kb/s
  63. Channel(s)                               : 6 channels
  64. Channel layout                           : L R C LFE Ls Rs
  65. Sampling rate                            : 48.0 kHz
  66. Frame rate                               : 31.250 FPS (1536 SPF)
  67. Bit depth                                : 16 bits
  68. Compression mode                         : Lossy
  69. Stream size                              : 444 MiB (1%)
  70. Title                                    : Finding.Dory.2016.2160p.BluRay.REMUX.HEVC.TrueHD.7.1.Atmos-FGT
  71. Language                                 : English
  72. Service kind                             : Complete Main
  73. Default                                  : No
  74. Forced                                   : No

  75. Audio #3
  76. ID                                       : 4
  77. Format                                   : E-AC-3
  78. Format/Info                              : Enhanced AC-3
  79. Commercial name                          : Dolby Digital Plus
  80. Format profile                           : Blu-ray Disc
  81. Codec ID                                 : A_EAC3
  82. Duration                                 : 1 h 37 min
  83. Bit rate mode                            : Constant
  84. Bit rate                                 : 896 kb/s
  85. Channel(s)                               : 8 channels
  86. Channel layout                           : L R C LFE Ls Rs Lb Rb
  87. Sampling rate                            : 48.0 kHz
  88. Frame rate                               : 31.250 FPS (1536 SPF)
  89. Compression mode                         : Lossy
  90. Stream size                              : 622 MiB (2%)
  91. Title                                    : Finding.Dory.2016.2160p.BluRay.REMUX.HEVC.TrueHD.7.1.Atmos-FGT
  92. Language                                 : English
  93. Service kind                             : Complete Main
  94. Default                                  : No
  95. Forced                                   : No

  96. Audio #4
  97. ID                                       : 5
  98. Format                                   : AC-3
  99. Format/Info                              : Audio Coding 3
  100. Commercial name                          : Dolby Digital
  101. Codec ID                                 : A_AC3
  102. Duration                                 : 1 h 37 min
  103. Bit rate mode                            : Constant
  104. Bit rate                                 : 512 kb/s
  105. Channel(s)                               : 6 channels
  106. Channel layout                           : L R C LFE Ls Rs
  107. Sampling rate                            : 48.0 kHz
  108. Frame rate                               : 31.250 FPS (1536 SPF)
  109. Bit depth                                : 16 bits
  110. Compression mode                         : Lossy
  111. Stream size                              : 355 MiB (1%)
  112. Title                                    : Finding.Dory.2016.2160p.BluRay.REMUX.HEVC.TrueHD.7.1.Atmos-FGT
  113. Language                                 : English
  114. Service kind                             : Complete Main
  115. Default                                  : No
  116. Forced                                   : No

  117. Audio #5
  118. ID                                       : 6
  119. Format                                   : AC-3
  120. Format/Info                              : Audio Coding 3
  121. Commercial name                          : Dolby Digital
  122. Codec ID                                 : A_AC3
  123. Duration                                 : 1 h 37 min
  124. Bit rate mode                            : Constant
  125. Bit rate                                 : 640 kb/s
  126. Channel(s)                               : 6 channels
  127. Channel layout                           : L R C LFE Ls Rs
  128. Sampling rate                            : 48.0 kHz
  129. Frame rate                               : 31.250 FPS (1536 SPF)
  130. Bit depth                                : 16 bits
  131. Compression mode                         : Lossy
  132. Stream size                              : 444 MiB (1%)
  133. Title                                    : Finding.Dory.2016.2160p.BluRay.REMUX.HEVC.TrueHD.7.1.Atmos-FGT
  134. Language                                 : English
  135. Service kind                             : Complete Main
  136. Default                                  : No
  137. Forced                                   : No

  138. Audio #6
  139. ID                                       : 7
  140. Format                                   : AC-3
  141. Format/Info                              : Audio Coding 3
  142. Commercial name                          : Dolby Digital
  143. Codec ID                                 : A_AC3
  144. Duration                                 : 1 h 37 min
  145. Bit rate mode                            : Constant
  146. Bit rate                                 : 320 kb/s
  147. Channel(s)                               : 2 channels
  148. Channel layout                           : L R
  149. Sampling rate                            : 48.0 kHz
  150. Frame rate                               : 31.250 FPS (1536 SPF)
  151. Bit depth                                : 16 bits
  152. Compression mode                         : Lossy
  153. Stream size                              : 222 MiB (1%)
  154. Title                                    : Finding.Dory.2016.2160p.BluRay.REMUX.HEVC.TrueHD.7.1.Atmos-FGT
  155. Language                                 : English
  156. Service kind                             : Complete Main
  157. Default                                  : No
  158. Forced                                   : No

  159. Audio #7
  160. ID                                       : 8
  161. Format                                   : AC-3
  162. Format/Info                              : Audio Coding 3
  163. Commercial name                          : Dolby Digital
  164. Codec ID                                 : A_AC3
  165. Duration                                 : 1 h 37 min
  166. Bit rate mode                            : Constant
  167. Bit rate                                 : 320 kb/s
  168. Channel(s)                               : 2 channels
  169. Channel layout                           : L R
  170. Sampling rate                            : 48.0 kHz
  171. Frame rate                               : 31.250 FPS (1536 SPF)
  172. Bit depth                                : 16 bits
  173. Compression mode                         : Lossy
  174. Stream size                              : 222 MiB (1%)
  175. Title                                    : Finding.Dory.2016.2160p.BluRay.REMUX.HEVC.TrueHD.7.1.Atmos-FGT
  176. Language                                 : English
  177. Service kind                             : Complete Main
  178. Default                                  : No
  179. Forced                                   : No

  180. Audio #8
  181. ID                                       : 9
  182. Format                                   : E-AC-3
  183. Format/Info                              : Enhanced AC-3
  184. Commercial name                          : Dolby Digital Plus
  185. Format profile                           : Blu-ray Disc
  186. Codec ID                                 : A_EAC3
  187. Duration                                 : 1 h 37 min
  188. Bit rate mode                            : Constant
  189. Bit rate                                 : 896 kb/s
  190. Channel(s)                               : 8 channels
  191. Channel layout                           : L R C LFE Ls Rs Lb Rb
  192. Sampling rate                            : 48.0 kHz
  193. Frame rate                               : 31.250 FPS (1536 SPF)
  194. Compression mode                         : Lossy
  195. Stream size                              : 622 MiB (2%)
  196. Title                                    : Finding.Dory.2016.2160p.BluRay.REMUX.HEVC.TrueHD.7.1.Atmos-FGT
  197. Language                                 : French
  198. Service kind                             : Complete Main
  199. Default                                  : No
  200. Forced                                   : No

  201. Audio #9
  202. ID                                       : 10
  203. Format                                   : AC-3
  204. Format/Info                              : Audio Coding 3
  205. Commercial name                          : Dolby Digital
  206. Codec ID                                 : A_AC3
  207. Duration                                 : 1 h 37 min
  208. Bit rate mode                            : Constant
  209. Bit rate                                 : 512 kb/s
  210. Channel(s)                               : 6 channels
  211. Channel layout                           : L R C LFE Ls Rs
  212. Sampling rate                            : 48.0 kHz
  213. Frame rate                               : 31.250 FPS (1536 SPF)
  214. Bit depth                                : 16 bits
  215. Compression mode                         : Lossy
  216. Stream size                              : 355 MiB (1%)
  217. Title                                    : Finding.Dory.2016.2160p.BluRay.REMUX.HEVC.TrueHD.7.1.Atmos-FGT
  218. Language                                 : French
  219. Service kind                             : Complete Main
  220. Default                                  : No
  221. Forced                                   : No

  222. Audio #10
  223. ID                                       : 11
  224. Format                                   : E-AC-3
  225. Format/Info                              : Enhanced AC-3
  226. Commercial name                          : Dolby Digital Plus
  227. Format profile                           : Blu-ray Disc
  228. Codec ID                                 : A_EAC3
  229. Duration                                 : 1 h 37 min
  230. Bit rate mode                            : Constant
  231. Bit rate                                 : 896 kb/s
  232. Channel(s)                               : 8 channels
  233. Channel layout                           : L R C LFE Ls Rs Lb Rb
  234. Sampling rate                            : 48.0 kHz
  235. Frame rate                               : 31.250 FPS (1536 SPF)
  236. Compression mode                         : Lossy
  237. Stream size                              : 622 MiB (2%)
  238. Title                                    : Finding.Dory.2016.2160p.BluRay.REMUX.HEVC.TrueHD.7.1.Atmos-FGT
  239. Language                                 : Spanish
  240. Service kind                             : Complete Main
  241. Default                                  : No
  242. Forced                                   : No

  243. Audio #11
  244. ID                                       : 12
  245. Format                                   : AC-3
  246. Format/Info                              : Audio Coding 3
  247. Commercial name                          : Dolby Digital
  248. Codec ID                                 : A_AC3
  249. Duration                                 : 1 h 37 min
  250. Bit rate mode                            : Constant
  251. Bit rate                                 : 512 kb/s
  252. Channel(s)                               : 6 channels
  253. Channel layout                           : L R C LFE Ls Rs
  254. Sampling rate                            : 48.0 kHz
  255. Frame rate                               : 31.250 FPS (1536 SPF)
  256. Bit depth                                : 16 bits
  257. Compression mode                         : Lossy
  258. Stream size                              : 355 MiB (1%)
  259. Title                                    : Finding.Dory.2016.2160p.BluRay.REMUX.HEVC.TrueHD.7.1.Atmos-FGT
  260. Language                                 : Spanish
  261. Service kind                             : Complete Main
  262. Default                                  : No
  263. Forced                                   : No

  264. Text #1
  265. ID                                       : 13
  266. Format                                   : UTF-8
  267. Codec ID                                 : S_TEXT/UTF8
  268. Codec ID/Info                            : UTF-8 Plain Text
  269. Duration                                 : 1 h 35 min
  270. Bit rate                                 : 85 b/s
  271. Count of elements                        : 1571
  272. Stream size                              : 59.5 KiB (0%)
  273. Title                                    : English-SRT
  274. Language                                 : English
  275. Default                                  : Yes
  276. Forced                                   : No

  277. Text #2
  278. ID                                       : 14
  279. Format                                   : PGS
  280. Muxing mode                              : zlib
  281. Codec ID                                 : S_HDMV/PGS
  282. Codec ID/Info                            : Picture based subtitle format used on BDs/HD-DVDs
  283. Duration                                 : 1 h 35 min
  284. Bit rate                                 : 58.0 kb/s
  285. Count of elements                        : 3528
  286. Stream size                              : 39.5 MiB (0%)
  287. Title                                    : English-PGS
  288. Language                                 : English
  289. Default                                  : No
  290. Forced                                   : No

  291. Text #3
  292. ID                                       : 15
  293. Format                                   : PGS
  294. Muxing mode                              : zlib
  295. Codec ID                                 : S_HDMV/PGS
  296. Codec ID/Info                            : Picture based subtitle format used on BDs/HD-DVDs
  297. Duration                                 : 1 h 35 min
  298. Bit rate                                 : 47.0 kb/s
  299. Count of elements                        : 2948
  300. Stream size                              : 32.0 MiB (0%)
  301. Title                                    : French-PGS
  302. Language                                 : French
  303. Default                                  : No
  304. Forced                                   : No

  305. Text #4
  306. ID                                       : 16
  307. Format                                   : PGS
  308. Muxing mode                              : zlib
  309. Codec ID                                 : S_HDMV/PGS
  310. Codec ID/Info                            : Picture based subtitle format used on BDs/HD-DVDs
  311. Duration                                 : 1 h 35 min
  312. Bit rate                                 : 48.2 kb/s
  313. Count of elements                        : 2902
  314. Stream size                              : 32.8 MiB (0%)
  315. Title                                    : Spanish-PGS
  316. Language                                 : Spanish
  317. Default                                  : No
  318. Forced                                   : No

  319. Menu
  320. 00:00:00.000                             : en:Chapter 01
  321. 00:02:35.738                             : en:Chapter 02
  322. 00:06:50.159                             : en:Chapter 03
  323. 00:10:53.152                             : en:Chapter 04
  324. 00:13:32.937                             : en:Chapter 05
  325. 00:15:25.007                             : en:Chapter 06
  326. 00:17:03.022                             : en:Chapter 07
  327. 00:19:35.465                             : en:Chapter 08
  328. 00:21:35.294                             : en:Chapter 09
  329. 00:24:58.413                             : en:Chapter 10
  330. 00:27:08.376                             : en:Chapter 11
  331. 00:30:33.206                             : en:Chapter 12
  332. 00:35:00.056                             : en:Chapter 13
  333. 00:37:52.019                             : en:Chapter 14
  334. 00:40:17.998                             : en:Chapter 15
  335. 00:41:06.297                             : en:Chapter 16
  336. 00:42:30.422                             : en:Chapter 17
  337. 00:46:03.427                             : en:Chapter 18
  338. 00:48:41.585                             : en:Chapter 19
  339. 00:50:27.858                             : en:Chapter 20
  340. 00:55:06.344                             : en:Chapter 21
  341. 00:57:05.839                             : en:Chapter 22
  342. 01:00:41.346                             : en:Chapter 23
  343. 01:04:32.910                             : en:Chapter 24
  344. 01:10:36.732                             : en:Chapter 25
  345. 01:12:28.218                             : en:Chapter 26
  346. 01:14:09.862                             : en:Chapter 27
  347. 01:18:26.493                             : en:Chapter 28
  348. 01:26:49.329                             : en:Chapter 29
复制代码

海底总动员2:多莉去哪儿/寻找多莉 Finding.Dory.2016.2160p.BluRay.REMUX.HEVC.TrueHD.7.1.Atmos-FGT 38.09GB-2.png 海底总动员2:多莉去哪儿/寻找多莉 Finding.Dory.2016.2160p.BluRay.REMUX.HEVC.TrueHD.7.1.Atmos-FGT 38.09GB-3.png 海底总动员2:多莉去哪儿/寻找多莉 Finding.Dory.2016.2160p.BluRay.REMUX.HEVC.TrueHD.7.1.Atmos-FGT 38.09GB-4.png






开通VIP免费下载本站所有资源---点这里
新手必看:资源下载、资源播放、字幕使用、等常见问题---点这里
回复

使用道具 举报

发表于 2019-9-7 20:10:57 | 显示全部楼层

楼主,大恩不言谢了!蓝光电影网是最棒的!
开通VIP免费下载本站所有资源---点这里
新手必看:资源下载、资源播放、字幕使用、等常见问题---点这里
回复 支持 反对

使用道具 举报

发表于 2019-9-7 23:26:41 | 显示全部楼层
楼主发贴辛苦了,谢谢楼主分享!我觉得蓝光电影网是注册对了!
开通VIP免费下载本站所有资源---点这里
新手必看:资源下载、资源播放、字幕使用、等常见问题---点这里
回复 支持 反对

使用道具 举报

发表于 2019-9-7 23:44:02 | 显示全部楼层
楼主发贴辛苦了,谢谢楼主分享!我觉得蓝光电影网是注册对了!
开通VIP免费下载本站所有资源---点这里
新手必看:资源下载、资源播放、字幕使用、等常见问题---点这里
回复 支持 反对

使用道具 举报

发表于 2019-9-8 01:40:19 | 显示全部楼层

楼主太厉害了!楼主,电影应该很好看我觉得蓝光电影网真是个好地方!
开通VIP免费下载本站所有资源---点这里
新手必看:资源下载、资源播放、字幕使用、等常见问题---点这里
回复 支持 反对

使用道具 举报

发表于 2019-9-8 02:15:05 | 显示全部楼层

楼主太厉害了!楼主,电影应该很好看我觉得蓝光电影网真是个好地方!
开通VIP免费下载本站所有资源---点这里
新手必看:资源下载、资源播放、字幕使用、等常见问题---点这里
回复 支持 反对

使用道具 举报

发表于 2019-9-8 07:48:38 | 显示全部楼层
点错了,一个电影反复扣了我好多蓝光币!
开通VIP免费下载本站所有资源---点这里
新手必看:资源下载、资源播放、字幕使用、等常见问题---点这里
回复 支持 反对

使用道具 举报

 成长值: 380

发表于 7 天前 | 显示全部楼层
谢谢楼主无私分享。
开通VIP免费下载本站所有资源---点这里
新手必看:资源下载、资源播放、字幕使用、等常见问题---点这里
回复 支持 反对

使用道具 举报

发表于 6 天前 | 显示全部楼层
楼主发贴辛苦了,谢谢楼主分享!我觉得蓝光电影网是注册对了!
开通VIP免费下载本站所有资源---点这里
新手必看:资源下载、资源播放、字幕使用、等常见问题---点这里
回复 支持 反对

使用道具 举报

懒得打字嘛,点击右侧快捷回复 【右侧内容,后台自定义】
您需要登录后才可以回帖 登录 | 立即加入

本版积分规则

现在加入蓝光电影网,注册一个账号

QQ| 手机版|小黑屋| 蓝光电影网 |网站地图

Copyright © 2015-2019 Comsenz Inc.  Template by 蓝光电影网 All Rights Reserved.

Powered by 蓝光电影网 X3.4

特别声明:本站所有资源均由网上收集而来,版权归原影音公司所有,如果侵犯了你的权益,请通知我们,我们会及时删除侵权内容.

快速回复 返回顶部 返回列表